MKV and M2ts on Samsung 55B8000 - AVS Forum
Forum Jump: 
 
Thread Tools
post #1 of 1 Old 01-10-2010, 12:16 PM - Thread Starter
Newbie
 
saad3000's Avatar
 
Join Date: Jan 2010
Location: Lebanon
Posts: 6
Mentioned: 0 Post(s)
Tagged: 0 Thread(s)
Quoted: 0 Post(s)
Liked: 10
Hello,

Am trying to play these 2 videos thru DLNA (network with laptop) But it says that the video is not supported. Any ideas how to play them or convert them to any playable videos without loosing quality?? Many thanks!!


***Note: I renamed the m2ts video file to avi and it played it but without a sound. However changing mkv to avi did not play the video nor the sound.
=============================
Here is the format of the mkv video file from MediaInfo software:

Video
ID : 1
Format : AVC
Format/Info : Advanced Video Codec
Format profile : High@L5.1
Format settings, CABAC : Yes
Format settings, ReFrames : 16 frames
Muxing mode : Container profile=Unknown@5.1
Codec ID : V_MPEG4/ISO/AVC
Duration : 1mn 42s
Bit rate : 38.5 Mbps
Nominal bit rate : 40.0 Mbps
Width : 1 920 pixels
Height : 1 080 pixels
Display aspect ratio : 16:9
Frame rate : 29.970 fps
Resolution : 8 bits
Colorimetry : 4:2:0
Scan type : Progressive
Bits/(Pixel*Frame) : 0.619
Stream size : 468 MiB (97%)
Title : Video x264 1080p @ 40 Mbps
Writing library : x264 core 57 svn-709C
Encoding settings : cabac=1 / ref=16 / deblock=1:-2:-1 / analyse=0x3:0x113 / me=umh / fpel_cmp=sad / subme=7 / me-prepass=0 / brdo=1 / mixed_ref=1 / me_range=16 / chroma_me=1 / trellis=2 / 8x8dct=1 / cqm=0 / deadzone=21,11 / chroma_qp_offset=0 / threads=6 / nr=0 / decimate=0 / mbaff=0 / bframes=16 / b_pyramid=1 / b_adapt=1 / b_bias=0 / direct=3 / wpredb=1 / bime=1 / keyint=250 / keyint_min=25 / scenecut=40(pre) / rc=2pass / bitrate=40000 / ratetol=1.0 / rceq='blurCplx^(1-qComp)' / qcomp=0.60 / qpmin=10 / qpmax=51 / qpstep=4 / cplxblur=20.0 / qblur=0.5 / ip_ratio=1.40 / pb_ratio=1.30

Audio
ID : 2
Format : AC-3
Format/Info : Audio Coding 3
Codec ID : A_AC3
Duration : 1mn 42s
Bit rate mode : Constant
Bit rate : 448 Kbps
Channel(s) : 2 channels
Channel positions : L R
Sampling rate : 48.0 KHz
Stream size : 5.46 MiB (1%)
Title : Audio ingles AC3 2.0 @ 448 Kbps
Language : English

============================================================ ===========================

Here is the m2ts video file Info:

Video
ID : 4113 (0x1011)
Menu ID : 1 (0x1)
Format : MPEG Video
Format version : Version 2
Format profile : Main@High
Format settings, BVOP : Yes
Format settings, Matrix : Default
Duration : 1mn 56s
Bit rate mode : Variable
Bit rate : 22.1 Mbps
Nominal bit rate : 22.0 Mbps
Width : 1 920 pixels
Height : 1 080 pixels
Display aspect ratio : 16:9
Frame rate : 25.000 fps
Resolution : 8 bits
Colorimetry : 4:2:0
Scan type : Interlaced
Scan order : Top Field First
Bits/(Pixel*Frame) : 0.427
Stream size : 307 MiB (94%)

Audio
ID : 4352 (0x1100)
Menu ID : 1 (0x1)
Format : AC-3
Format/Info : Audio Coding 3
Duration : 1mn 56s
Bit rate mode : Constant
Bit rate : 448 Kbps
Channel(s) : 6 channels
Channel positions : Front: L C R, Surround: L R, LFE
Sampling rate : 48.0 KHz
Stream size : 6.22 MiB (2%)




Regards,

Saad
saad3000 is offline  
Reply HDTV Software Media Discussion

User Tag List

Thread Tools
Show Printable Version Show Printable Version
Email this Page Email this Page


Forum Jump: 

Posting Rules  
You may not post new threads
You may not post replies
You may not post attachments
You may not edit your posts

BB code is On
Smilies are On
[IMG] code is On
HTML code is Off
Trackbacks are Off
Pingbacks are Off
Refbacks are Off