NEW Unofficial Blu-ray Audio and Video Specifications Thread - Page 170 - AVS Forum
Forum Jump: 
Reply
 
Thread Tools
post #5071 of 5079 Old 04-07-2014, 04:42 PM
Member
 
zzap64's Avatar
 
Join Date: Dec 2006
Posts: 193
Mentioned: 0 Post(s)
Tagged: 0 Thread(s)
Quoted: 0 Post(s)
Liked: 10

[US] Gulliver's Travels (1939)
Studio: KOCH Entertainment LP
Region: A, B, C
Aspect Ratio: 1.78:1
Code:
                                                                                                                Total   Video                                             
Title                                                           Codec   Length  Movie Size      Disc Size       Bitrate Bitrate Main Audio Track                          Secondary Audio Track
-----                                                           ------  ------- --------------  --------------  ------- ------- ------------------                        ---------------------
00000.MPLS                                                      MPEG-2  1:16:22 18,737,534,976  23,255,331,216  32.71   29.99   DD AC3 2.0 384Kbps                        DD AC3 5.1 448Kbps
Code:

DISC INFO:

Disc Title:     BDROM
Disc Size:      23,255,331,216 bytes
Protection:     AACS
BD-Java:        No
BDInfo:         0.5.8

PLAYLIST REPORT:

Name:                   00000.MPLS
Length:                 1:16:22.953 (h:m:s.ms)
Size:                   18,737,534,976 bytes
Total Bitrate:          32.71 Mbps

VIDEO:

Codec                   Bitrate             Description     
-----                   -------             -----------     
MPEG-2 Video            29987 kbps          1080p / 23.976 fps / 16:9

AUDIO:

Codec                           Language        Bitrate         Description     
-----                           --------        -------         -----------     
Dolby Digital Audio             English         384 kbps        2.0 / 48 kHz / 384 kbps / DN -4dB
Dolby Digital Audio             English         448 kbps        5.1 / 48 kHz / 448 kbps / DN -4dB
Dolby Digital Audio             English         384 kbps        2.0 / 48 kHz / 384 kbps / DN -4dB

FILES:

Name            Time In         Length          Size            Total Bitrate   
----            -------         ------          ----            -------------   
00000.M2TS      0:00:00.000     1:16:22.953     18,737,534,976  32,708          

CHAPTERS:

Number          Time In         Length          Avg Video Rate  Max 1-Sec Rate  Max 1-Sec Time  Max 5-Sec Rate  Max 5-Sec Time  Max 10Sec Rate  Max 10Sec Time  Avg Frame Size  Max Frame Size  Max Frame Time  
------          -------         ------          --------------  --------------  --------------  --------------  --------------  --------------  --------------  --------------  --------------  --------------  
1               0:00:00.000     0:03:42.305     29,973 kbps     39,760 kbps     00:02:24.060    35,268 kbps     00:02:55.425    34,310 kbps     00:02:55.425    156,238 bytes   735,433 bytes   00:01:51.611    
2               0:03:42.305     0:07:14.434     30,008 kbps     39,587 kbps     00:06:13.206    35,551 kbps     00:08:27.840    34,642 kbps     00:05:24.824    156,447 bytes   612,522 bytes   00:03:55.360    
3               0:10:56.739     0:07:19.439     30,082 kbps     40,307 kbps     00:13:36.899    35,734 kbps     00:14:49.430    34,636 kbps     00:14:44.216    156,836 bytes   612,522 bytes   00:11:41.575    
4               0:18:16.178     0:14:44.883     29,981 kbps     40,766 kbps     00:28:12.148    35,610 kbps     00:20:26.141    34,867 kbps     00:20:24.806    156,307 bytes   612,522 bytes   00:26:23.206    
5               0:33:01.062     0:10:01.601     29,979 kbps     39,803 kbps     00:41:59.975    35,137 kbps     00:37:26.786    33,623 kbps     00:34:00.163    156,299 bytes   612,522 bytes   00:38:35.187    
6               0:43:02.663     0:01:40.099     29,509 kbps     37,302 kbps     00:43:10.421    32,992 kbps     00:43:48.500    32,384 kbps     00:43:43.579    153,847 bytes   612,522 bytes   00:43:38.240    
7               0:44:42.763     0:05:50.350     30,272 kbps     39,740 kbps     00:48:28.196    35,831 kbps     00:49:21.541    34,949 kbps     00:49:21.083    157,826 bytes   612,522 bytes   00:46:54.061    
8               0:50:33.113     0:13:53.832     29,965 kbps     40,548 kbps     01:01:19.884    35,318 kbps     00:54:33.228    34,516 kbps     00:55:57.937    156,222 bytes   612,522 bytes   01:02:28.995    
9               1:04:26.946     0:00:37.037     29,984 kbps     39,692 kbps     01:05:01.731    33,313 kbps     01:04:41.836    31,668 kbps     01:04:26.946    156,324 bytes   516,173 bytes   01:05:03.900    
10              1:05:03.983     0:07:58.978     29,974 kbps     40,149 kbps     01:06:34.824    35,338 kbps     01:11:22.111    33,695 kbps     01:05:42.146    156,270 bytes   657,410 bytes   01:12:35.476    
11              1:13:02.961     0:03:19.991     29,672 kbps     39,294 kbps     01:15:05.584    35,911 kbps     01:16:09.773    35,359 kbps     01:16:09.564    154,730 bytes   626,628 bytes   01:16:16.071    

STREAM DIAGNOSTICS:

File            PID             Type            Codec           Language                Seconds                 Bitrate                 Bytes           Packets         
----            ---             ----            -----           --------                --------------          --------------          -------------   -----           
00000.M2TS      4113 (0x1011)   0x02            MPEG-2                                  4582.828                29,988                  17,178,901,504  93,427,705      
00000.M2TS      4352 (0x1100)   0x81            AC3             eng (English)           4582.828                384                     219,981,312     1,288,953       
00000.M2TS      4353 (0x1101)   0x81            AC3             eng (English)           4582.828                448                     256,644,864     1,432,170       
00000.M2TS      4354 (0x1102)   0x81            AC3             eng (English)           4582.828                384                     219,981,312     1,288,953       

zzap64 is offline  
Sponsored Links
Advertisement
 
post #5072 of 5079 Old 04-07-2014, 04:45 PM
Member
 
zzap64's Avatar
 
Join Date: Dec 2006
Posts: 193
Mentioned: 0 Post(s)
Tagged: 0 Thread(s)
Quoted: 0 Post(s)
Liked: 10

[US] Gulliver's Travels (1939)
Studio: Thunderbean Animation
Region: A, B, C
Aspect Ratio: 1.33:1
Code:
                                                                                                                Total   Video                                             
Title                                                           Codec   Length  Movie Size      Disc Size       Bitrate Bitrate Main Audio Track                          Secondary Audio Track
-----                                                           ------  ------- --------------  --------------  ------- ------- ------------------                        ---------------------
00017.MPLS                                                      AVC     1:16:21 15,117,385,728  24,895,320,952  26.40   25.00   DD AC3 2.0 192Kbps                        
Code:

DISC INFO:

Disc Title:     14020105
Disc Size:      24,895,320,952 bytes
Protection:     AACS
BD-Java:        No
BDInfo:         0.5.8

PLAYLIST REPORT:

Name:                   00017.MPLS
Length:                 1:16:21.034 (h:m:s.ms)
Size:                   15,117,385,728 bytes
Total Bitrate:          26.40 Mbps

VIDEO:

Codec                   Bitrate             Description     
-----                   -------             -----------     
MPEG-4 AVC Video        25000 kbps          1080p / 23.976 fps / 16:9 / High Profile 4.1

AUDIO:

Codec                           Language        Bitrate         Description     
-----                           --------        -------         -----------     
Dolby Digital Audio             English         192 kbps        2.0 / 48 kHz / 192 kbps / DN -4dB

FILES:

Name            Time In         Length          Size            Total Bitrate   
----            -------         ------          ----            -------------   
00057.M2TS      0:00:00.000     1:16:21.034     15,117,385,728  26,400          

CHAPTERS:

Number          Time In         Length          Avg Video Rate  Max 1-Sec Rate  Max 1-Sec Time  Max 5-Sec Rate  Max 5-Sec Time  Max 10Sec Rate  Max 10Sec Time  Avg Frame Size  Max Frame Size  Max Frame Time  
------          -------         ------          --------------  --------------  --------------  --------------  --------------  --------------  --------------  --------------  --------------  --------------  
1               0:00:00.000     0:02:09.212     22,688 kbps     34,563 kbps     00:01:56.616    33,106 kbps     00:01:54.447    32,122 kbps     00:01:49.943    118,208 bytes   439,960 bytes   00:02:08.628    
2               0:02:09.212     0:01:31.257     17,291 kbps     30,596 kbps     00:02:25.144    25,622 kbps     00:02:35.822    22,414 kbps     00:02:33.361    90,189 bytes    343,883 bytes   00:02:09.462    
3               0:03:40.470     0:03:34.047     15,531 kbps     28,777 kbps     00:06:59.919    25,720 kbps     00:06:57.667    22,289 kbps     00:06:57.667    80,953 bytes    309,397 bytes   00:06:39.982    
4               0:07:14.517     0:03:40.553     26,013 kbps     39,390 kbps     00:09:35.491    32,935 kbps     00:10:17.783    31,388 kbps     00:09:26.732    135,618 bytes   355,509 bytes   00:07:44.172    
5               0:10:55.071     0:05:04.762     25,121 kbps     41,187 kbps     00:14:08.305    36,491 kbps     00:13:59.713    35,983 kbps     00:13:54.375    130,985 bytes   331,893 bytes   00:13:41.070    
6               0:15:59.833     0:01:56.825     17,528 kbps     24,970 kbps     00:16:41.667    23,134 kbps     00:16:32.783    22,893 kbps     00:16:32.992    91,384 bytes    295,492 bytes   00:17:02.646    
7               0:17:56.658     0:01:35.929     22,156 kbps     34,399 kbps     00:18:21.100    32,919 kbps     00:18:20.516    31,443 kbps     00:18:21.100    115,461 bytes   346,205 bytes   00:18:19.640    
8               0:19:32.588     0:04:55.086     18,416 kbps     34,314 kbps     00:23:08.428    27,827 kbps     00:22:55.207    26,632 kbps     00:22:50.035    96,028 bytes    352,163 bytes   00:23:08.678    
9               0:24:27.674     0:09:31.862     19,532 kbps     40,287 kbps     00:28:12.982    28,755 kbps     00:28:34.379    28,030 kbps     00:28:29.874    101,821 bytes   351,104 bytes   00:26:56.906    
10              0:33:59.537     0:03:57.403     28,378 kbps     42,843 kbps     00:36:27.101    38,465 kbps     00:36:00.199    36,471 kbps     00:35:58.698    147,977 bytes   407,527 bytes   00:35:13.569    
11              0:37:56.941     0:02:42.745     32,035 kbps     43,085 kbps     00:38:02.905    39,187 kbps     00:38:01.654    37,410 kbps     00:37:57.608    167,015 bytes   455,312 bytes   00:37:57.692    
12              0:40:39.687     0:04:01.866     32,848 kbps     41,928 kbps     00:40:59.498    38,472 kbps     00:40:54.994    37,173 kbps     00:40:54.994    171,254 bytes   470,328 bytes   00:43:16.302    
13              0:44:41.553     0:04:27.141     30,352 kbps     41,706 kbps     00:44:47.267    37,044 kbps     00:47:50.617    36,069 kbps     00:47:47.239    158,214 bytes   372,546 bytes   00:48:37.372    
14              0:49:08.695     0:05:12.645     27,305 kbps     41,715 kbps     00:50:44.791    36,818 kbps     00:51:53.652    36,089 kbps     00:49:33.095    142,355 bytes   371,868 bytes   00:49:33.136    
15              0:54:21.341     0:01:31.341     21,120 kbps     31,746 kbps     00:55:21.609    29,955 kbps     00:55:19.274    28,421 kbps     00:55:14.311    110,161 bytes   276,830 bytes   00:55:22.360    
16              0:55:52.682     0:03:08.771     29,766 kbps     41,942 kbps     00:57:08.007    37,247 kbps     00:56:10.617    36,954 kbps     00:56:05.945    155,187 bytes   358,057 bytes   00:56:06.029    
17              0:59:01.454     0:01:26.711     21,512 kbps     32,342 kbps     01:00:08.396    27,549 kbps     01:00:04.851    26,173 kbps     00:59:59.679    112,155 bytes   366,167 bytes   00:59:45.081    
18              1:00:28.166     0:03:04.851     22,971 kbps     34,413 kbps     01:01:56.713    31,166 kbps     01:01:27.558    30,253 kbps     01:01:26.057    119,762 bytes   344,932 bytes   01:01:24.639    
19              1:03:33.017     0:03:15.403     25,599 kbps     36,108 kbps     01:06:34.949    31,832 kbps     01:06:32.071    31,291 kbps     01:06:27.024    133,435 bytes   384,980 bytes   01:06:28.651    
20              1:06:48.421     0:01:50.109     27,082 kbps     39,382 kbps     01:07:57.490    35,888 kbps     01:08:10.252    34,658 kbps     01:08:09.335    141,195 bytes   364,407 bytes   01:06:49.171    
21              1:08:38.531     0:01:44.104     33,604 kbps     41,676 kbps     01:09:06.851    36,968 kbps     01:08:42.076    35,915 kbps     01:08:59.385    175,195 bytes   422,824 bytes   01:09:06.016    
22              1:10:22.635     0:01:19.996     32,160 kbps     38,610 kbps     01:10:59.129    36,546 kbps     01:10:50.996    34,100 kbps     01:10:25.971    167,755 bytes   407,450 bytes   01:10:51.038    
23              1:11:42.631     0:02:54.090     31,502 kbps     43,184 kbps     01:13:44.920    37,550 kbps     01:13:01.251    36,957 kbps     01:12:59.750    164,238 bytes   505,414 bytes   01:13:26.151    
24              1:14:36.722     0:01:44.312     26,664 kbps     36,765 kbps     01:16:07.854    35,836 kbps     01:16:07.479    34,974 kbps     01:16:07.271    139,069 bytes   357,897 bytes   01:15:41.036    

STREAM DIAGNOSTICS:

File            PID             Type            Codec           Language                Seconds                 Bitrate                 Bytes           Packets         
----            ---             ----            -----           --------                --------------          --------------          -------------   -----           
00057.M2TS      4113 (0x1011)   0x1B            AVC                                     4580.910                25,000                  14,315,590,124  77,866,573      
00057.M2TS      4352 (0x1100)   0x81            AC3             eng (English)           4580.910                192                     109,944,576     715,785         

zzap64 is offline  
post #5073 of 5079 Old 04-07-2014, 04:50 PM
Member
 
zzap64's Avatar
 
Join Date: Dec 2006
Posts: 193
Mentioned: 0 Post(s)
Tagged: 0 Thread(s)
Quoted: 0 Post(s)
Liked: 10

[AU]The Hunger Games: Catching Fire
Distributor: Roadshow Entertainment
Region: B
Aspect Ratio: 2.40:1
Code:
                                                                                                                Total   Video                                             
Title                                                           Codec   Length  Movie Size      Disc Size       Bitrate Bitrate Main Audio Track                          Secondary Audio Track
-----                                                           ------  ------- --------------  --------------  ------- ------- ------------------                        ---------------------
00000.MPLS                                                      AVC     2:26:12 37,953,628,608  47,598,972,388  34.61   29.41   DTS-HD Master 7.1 2954Kbps (48kHz/16-bit) 
Code:

DISC INFO:

Disc Title:     THE_HUNGER_GAMES_CATCHING_FIRE
Disc Size:      47,598,972,388 bytes
Protection:     AACS
BD-Java:        No
Extras:         50Hz Content
BDInfo:         0.5.8

PLAYLIST REPORT:

Name:                   00000.MPLS
Length:                 2:26:12.763 (h:m:s.ms)
Size:                   37,953,628,608 bytes
Total Bitrate:          34.61 Mbps

VIDEO:

Codec                   Bitrate             Description     
-----                   -------             -----------     
MPEG-4 AVC Video        29409 kbps          1080p / 23.976 fps / 16:9 / High Profile 4.1

AUDIO:

Codec                           Language        Bitrate         Description     
-----                           --------        -------         -----------     
DTS-HD Master Audio             English         2954 kbps       7.1 / 48 kHz / 2954 kbps / 16-bit (DTS Core: 5.1 / 48 kHz / 1509 kbps / 16-bit / DN -3dB)
Dolby Digital Audio             English         224 kbps        2.0 / 48 kHz / 224 kbps / DN -4dB
Dolby Digital Audio             English         224 kbps        2.0 / 48 kHz / 224 kbps / DN -4dB

SUBTITLES:

Codec                           Language        Bitrate         Description     
-----                           --------        -------         -----------     
Presentation Graphics           English         42.377 kbps                     

FILES:

Name            Time In         Length          Size            Total Bitrate   
----            -------         ------          ----            -------------   
00000.M2TS      0:00:00.000     2:26:12.763     37,953,628,608  34,610          

CHAPTERS:

Number          Time In         Length          Avg Video Rate  Max 1-Sec Rate  Max 1-Sec Time  Max 5-Sec Rate  Max 5-Sec Time  Max 10Sec Rate  Max 10Sec Time  Avg Frame Size  Max Frame Size  Max Frame Time  
------          -------         ------          --------------  --------------  --------------  --------------  --------------  --------------  --------------  --------------  --------------  --------------  
1               0:00:00.000     0:05:57.732     29,647 kbps     49,790 kbps     00:01:53.488    40,597 kbps     00:03:16.404    38,759 kbps     00:03:14.903    154,549 bytes   756,971 bytes   00:02:13.758    
2               0:05:57.732     0:07:40.585     31,154 kbps     49,356 kbps     00:13:24.345    40,207 kbps     00:09:22.395    38,937 kbps     00:11:41.784    162,422 bytes   672,840 bytes   00:11:49.750    
3               0:13:38.317     0:11:59.093     31,153 kbps     52,324 kbps     00:22:32.851    42,164 kbps     00:24:15.287    38,731 kbps     00:19:24.037    162,420 bytes   691,632 bytes   00:14:41.797    
4               0:25:37.410     0:07:48.968     34,013 kbps     54,478 kbps     00:31:05.530    40,466 kbps     00:26:12.988    39,118 kbps     00:30:24.239    177,327 bytes   680,029 bytes   00:26:13.196    
5               0:33:26.379     0:08:10.323     32,731 kbps     49,416 kbps     00:35:49.939    40,934 kbps     00:33:55.992    39,745 kbps     00:33:50.862    170,646 bytes   723,598 bytes   00:36:35.776    
6               0:41:36.702     0:10:35.551     28,758 kbps     52,145 kbps     00:44:22.409    44,010 kbps     00:46:50.015    40,615 kbps     00:43:24.476    149,933 bytes   900,012 bytes   00:47:13.372    
7               0:52:12.254     0:08:58.454     32,517 kbps     47,833 kbps     00:58:11.196    41,893 kbps     00:58:09.611    39,284 kbps     00:53:02.137    169,529 bytes   791,847 bytes   00:58:41.351    
8               1:01:10.708     0:07:00.837     33,850 kbps     46,244 kbps     01:06:10.174    41,134 kbps     01:03:41.776    39,523 kbps     01:03:36.479    176,481 bytes   664,430 bytes   01:07:11.277    
9               1:08:11.545     0:08:36.557     33,308 kbps     50,865 kbps     01:12:17.791    41,223 kbps     01:14:26.044    39,337 kbps     01:14:24.918    173,653 bytes   668,764 bytes   01:12:17.833    
10              1:16:48.103     0:08:34.222     34,003 kbps     49,332 kbps     01:22:43.750    41,154 kbps     01:18:36.878    39,450 kbps     01:19:10.954    177,279 bytes   655,741 bytes   01:19:51.661    
11              1:25:22.325     0:03:58.738     33,146 kbps     52,431 kbps     01:26:42.030    42,536 kbps     01:26:42.238    39,641 kbps     01:26:42.030    172,807 bytes   752,628 bytes   01:28:58.416    
12              1:29:21.064     0:11:22.181     19,152 kbps     49,688 kbps     01:30:56.451    39,921 kbps     01:29:56.849    38,516 kbps     01:30:19.247    99,848 bytes    701,058 bytes   01:29:54.180    
13              1:40:43.245     0:13:18.005     27,827 kbps     57,606 kbps     01:46:40.685    43,109 kbps     01:44:38.772    39,529 kbps     01:51:37.357    145,078 bytes   734,144 bytes   01:54:01.209    
14              1:54:01.251     0:08:45.066     34,571 kbps     49,080 kbps     01:57:58.780    40,267 kbps     01:58:39.862    39,025 kbps     02:01:36.914    180,239 bytes   841,152 bytes   01:55:05.148    
15              2:02:46.317     0:11:11.671     25,556 kbps     50,930 kbps     02:09:23.046    42,727 kbps     02:10:11.595    39,608 kbps     02:02:57.411    133,239 bytes   826,619 bytes   02:03:07.380    
16              2:13:57.988     0:12:13.774     21,013 kbps     49,590 kbps     02:15:48.682    39,372 kbps     02:15:08.308    38,628 kbps     02:15:08.308    109,553 bytes   602,182 bytes   02:14:00.949    
17              2:26:11.763     0:00:01.000     72 kbps         0 kbps          00:00:00.000    0 kbps          00:00:00.000    0 kbps          00:00:00.000    412 bytes       2,442 bytes     02:26:11.929    

STREAM DIAGNOSTICS:

File            PID             Type            Codec           Language                Seconds                 Bitrate                 Bytes           Packets         
----            ---             ----            -----           --------                --------------          --------------          -------------   -----           
00000.M2TS      4113 (0x1011)   0x1B            AVC                                     8772.681                29,410                  32,250,083,623  175,397,414     
00000.M2TS      4352 (0x1100)   0x86            DTS-HD MA       eng (English)           8772.681                2,954                   3,239,379,168   18,974,907      
00000.M2TS      4353 (0x1101)   0x81            AC3             eng (English)           8772.681                224                     245,636,608     1,370,740       
00000.M2TS      4354 (0x1102)   0x81            AC3             eng (English)           8772.681                224                     245,636,608     1,370,740       
00000.M2TS      4608 (0x1200)   0x90            PGS             eng (English)           8772.681                42                      46,470,925      267,455         

zzap64 is offline  
post #5074 of 5079 Old 04-07-2014, 04:53 PM
Member
 
zzap64's Avatar
 
Join Date: Dec 2006
Posts: 193
Mentioned: 0 Post(s)
Tagged: 0 Thread(s)
Quoted: 0 Post(s)
Liked: 10

[ES] The Hunger Games: Catching Fire
Distributor: eOne Films
Region: B
Aspect Ratio: 2.35:1/1.78:1 IMAX
Code:
                                                                                                                Total   Video                                             
Title                                                           Codec   Length  Movie Size      Disc Size       Bitrate Bitrate Main Audio Track                          Secondary Audio Track
-----                                                           ------  ------- --------------  --------------  ------- ------- ------------------                        ---------------------
00000.MPLS                                                      AVC     2:26:24 37,825,591,296  38,137,923,656  34.45   25.22   DTS-HD Master 7.1 2953Kbps (48kHz/16-bit) 
Code:

DISC INFO:

Disc Title:     EN LLAMAS
Disc Size:      38,137,923,656 bytes
Protection:     AACS
BD-Java:        Yes
BDInfo:         0.5.8

PLAYLIST REPORT:

Name:                   00000.MPLS
Length:                 2:26:24.416 (h:m:s.ms)
Size:                   37,825,591,296 bytes
Total Bitrate:          34.45 Mbps

VIDEO:

Codec                   Bitrate             Description     
-----                   -------             -----------     
MPEG-4 AVC Video        25221 kbps          1080p / 24 fps / 16:9 / High Profile 4.1

AUDIO:

Codec                           Language        Bitrate         Description     
-----                           --------        -------         -----------     
DTS-HD Master Audio             English         2953 kbps       7.1 / 48 kHz / 2953 kbps / 16-bit (DTS Core: 5.1 / 48 kHz / 1509 kbps / 16-bit)
DTS-HD Master Audio             Spanish         2954 kbps       7.1 / 48 kHz / 2954 kbps / 16-bit (DTS Core: 5.1 / 48 kHz / 1509 kbps / 16-bit)
DTS-HD Master Audio             Spanish         1087 kbps       2.0 / 48 kHz / 1087 kbps / 16-bit (DTS Core: 2.0 / 48 kHz / 768 kbps / 16-bit)

SUBTITLES:

Codec                           Language        Bitrate         Description     
-----                           --------        -------         -----------     
Presentation Graphics           English         28.120 kbps                     
Presentation Graphics           Spanish         26.565 kbps                     
Presentation Graphics           Spanish         47.812 kbps                     
Presentation Graphics           Spanish         0.056 kbps                      

FILES:

Name            Time In         Length          Size            Total Bitrate   
----            -------         ------          ----            -------------   
00006.M2TS      0:00:00.000     2:26:24.416     37,825,591,296  34,448          

CHAPTERS:

Number          Time In         Length          Avg Video Rate  Max 1-Sec Rate  Max 1-Sec Time  Max 5-Sec Rate  Max 5-Sec Time  Max 10Sec Rate  Max 10Sec Time  Avg Frame Size  Max Frame Size  Max Frame Time  
------          -------         ------          --------------  --------------  --------------  --------------  --------------  --------------  --------------  --------------  --------------  --------------  
1               0:00:00.000     0:11:26.708     26,039 kbps     55,960 kbps     00:00:07.041    39,701 kbps     00:00:06.291    36,182 kbps     00:00:06.374    135,612 bytes   577,882 bytes   00:00:41.666    
2               0:11:26.708     0:05:33.958     25,947 kbps     48,129 kbps     00:16:26.958    32,633 kbps     00:13:18.291    28,151 kbps     00:13:18.041    135,139 bytes   513,503 bytes   00:17:00.666    
3               0:17:00.666     0:09:14.374     26,028 kbps     47,748 kbps     00:19:51.250    31,168 kbps     00:22:45.625    28,700 kbps     00:20:59.250    135,564 bytes   652,388 bytes   00:19:51.291    
4               0:26:15.041     0:10:33.750     25,981 kbps     44,049 kbps     00:27:36.208    31,814 kbps     00:35:53.166    29,180 kbps     00:31:59.333    135,316 bytes   521,392 bytes   00:35:55.333    
5               0:36:48.791     0:08:31.708     26,014 kbps     39,680 kbps     00:39:03.458    30,609 kbps     00:44:25.500    28,240 kbps     00:44:25.500    135,489 bytes   548,726 bytes   00:39:04.041    
6               0:45:20.500     0:07:46.916     26,007 kbps     45,453 kbps     00:52:16.791    33,694 kbps     00:52:13.833    28,522 kbps     00:46:10.208    135,452 bytes   576,910 bytes   00:51:47.541    
7               0:53:07.416     0:08:55.541     25,990 kbps     52,608 kbps     00:58:58.416    30,366 kbps     01:01:18.791    28,054 kbps     01:01:19.666    135,363 bytes   550,548 bytes   00:58:58.458    
8               1:02:02.958     0:07:32.541     26,002 kbps     40,781 kbps     01:08:48.583    30,690 kbps     01:08:48.625    28,149 kbps     01:05:12.166    135,429 bytes   429,090 bytes   01:08:49.625    
9               1:09:35.500     0:07:11.333     25,957 kbps     40,204 kbps     01:14:53.541    30,718 kbps     01:13:42.541    28,375 kbps     01:13:42.500    135,195 bytes   647,694 bytes   01:16:46.833    
10              1:16:46.833     0:05:50.166     26,042 kbps     48,945 kbps     01:16:46.833    30,943 kbps     01:20:50.750    28,452 kbps     01:21:05.041    135,637 bytes   552,790 bytes   01:21:07.500    
11              1:22:37.000     0:07:15.208     26,003 kbps     47,295 kbps     01:28:03.125    29,994 kbps     01:24:03.375    28,150 kbps     01:27:23.083    135,435 bytes   544,758 bytes   01:28:03.166    
12              1:29:52.208     0:09:24.166     26,002 kbps     45,289 kbps     01:37:51.500    33,788 kbps     01:33:48.791    30,517 kbps     01:33:43.250    135,429 bytes   664,842 bytes   01:37:51.541    
13              1:39:16.375     0:07:56.708     26,001 kbps     50,745 kbps     01:45:28.500    32,418 kbps     01:45:25.541    28,945 kbps     01:46:02.541    135,424 bytes   779,881 bytes   01:45:28.541    
14              1:47:13.083     0:14:52.250     26,006 kbps     47,986 kbps     01:57:15.166    32,900 kbps     01:53:59.666    28,453 kbps     01:48:15.708    135,450 bytes   571,506 bytes   01:54:00.791    
15              2:02:05.333     0:08:06.875     25,982 kbps     46,809 kbps     02:09:49.749    31,526 kbps     02:07:48.458    29,259 kbps     02:09:21.499    135,323 bytes   696,997 bytes   02:09:49.791    
16              2:10:12.208     0:16:12.208     18,943 kbps     52,979 kbps     02:13:54.916    35,415 kbps     02:15:29.583    30,911 kbps     02:15:29.541    98,666 bytes    532,356 bytes   02:13:55.333    

STREAM DIAGNOSTICS:

File            PID             Type            Codec           Language                Seconds                 Bitrate                 Bytes           Packets         
----            ---             ----            -----           --------                --------------          --------------          -------------   -----           
00006.M2TS      4113 (0x1011)   0x1B            AVC                                     8784.333                25,221                  27,693,656,134  150,631,693     
00006.M2TS      4352 (0x1100)   0x86            DTS-HD MA       eng (English)           8784.333                2,953                   3,242,661,532   19,002,021      
00006.M2TS      4353 (0x1101)   0x86            DTS-HD MA       spa (Spanish)           8784.333                2,954                   3,243,249,580   19,005,288      
00006.M2TS      4354 (0x1102)   0x86            DTS-HD MA       spa (Spanish)           8784.333                1,087                   1,193,179,184   7,420,839       
00006.M2TS      4608 (0x1200)   0x90            PGS             eng (English)           8784.333                28                      30,876,920      179,393         
00006.M2TS      4609 (0x1201)   0x90            PGS             spa (Spanish)           8784.333                27                      29,169,948      170,024         
00006.M2TS      4610 (0x1202)   0x90            PGS             spa (Spanish)           8784.333                48                      52,500,232      301,774         
00006.M2TS      4611 (0x1203)   0x90            PGS             spa (Spanish)           8784.333                0                       61,211          347             

zzap64 is offline  
post #5075 of 5079 Old 04-07-2014, 04:56 PM
Member
 
zzap64's Avatar
 
Join Date: Dec 2006
Posts: 193
Mentioned: 0 Post(s)
Tagged: 0 Thread(s)
Quoted: 0 Post(s)
Liked: 10

[UK] The Hunger Games: Catching Fire
Distributor: Lionsgate Entertainment
Region: B
Aspect Ratio: 2.35:1/1.78:1 IMAX
Code:
                                                                                                                Total   Video                                             
Title                                                           Codec   Length  Movie Size      Disc Size       Bitrate Bitrate Main Audio Track                          Secondary Audio Track
-----                                                           ------  ------- --------------  --------------  ------- ------- ------------------                        ---------------------
00015.MPLS                                                      AVC     2:26:14 31,238,799,360  48,633,731,447  28.48   20.50   DTS-HD Master 7.1 5019Kbps (48kHz/24-bit) 
Code:

DISC INFO:

Disc Title:     CATCHING_FIRE
Disc Size:      48,633,731,447 bytes
Protection:     AACS
BD-Java:        Yes
BDInfo:         0.5.8

PLAYLIST REPORT:

Name:                   00015.MPLS
Length:                 2:26:14.599 (h:m:s.ms)
Size:                   31,238,799,360 bytes
Total Bitrate:          28.48 Mbps

(*) Indicates included stream hidden by this playlist.

VIDEO:

Codec                   Bitrate             Description     
-----                   -------             -----------     
MPEG-4 AVC Video        20504 kbps          1080p / 23.976 fps / 16:9 / High Profile 4.1

AUDIO:

Codec                           Language        Bitrate         Description     
-----                           --------        -------         -----------     
DTS-HD Master Audio             English         5019 kbps       7.1 / 48 kHz / 5019 kbps / 24-bit (DTS Core: 5.1 / 48 kHz / 1509 kbps / 24-bit)
Dolby Digital Audio             English         224 kbps        2.0 / 48 kHz / 224 kbps / Dolby Surround
Dolby Digital Audio             English         224 kbps        2.0 / 48 kHz / 224 kbps / Dolby Surround
* Dolby Digital Audio           Spanish         640 kbps        5.1 / 48 kHz / 640 kbps
Dolby Digital Audio             English         224 kbps        2.0 / 48 kHz / 224 kbps / Dolby Surround

SUBTITLES:

Codec                           Language        Bitrate         Description     
-----                           --------        -------         -----------     
Presentation Graphics           English         27.081 kbps                     
Presentation Graphics           English         32.727 kbps                     
* Presentation Graphics         Spanish         26.592 kbps                     

FILES:

Name            Time In         Length          Size            Total Bitrate   
----            -------         ------          ----            -------------   
00503.M2TS      0:00:00.000     0:05:56.647     1,159,907,328   26,018          
00505.M2TS      0:05:56.647     0:00:43.543     145,858,560     26,798          
00509.M2TS      0:06:40.191     0:00:21.021     76,873,728      29,256          
00514.M2TS      0:07:01.212     0:02:15.260     442,626,048     26,179          
00506.M2TS      0:09:16.472     0:05:03.094     1,050,439,680   27,726          
00512.M2TS      0:14:19.567     0:01:31.800     319,266,816     27,823          
00504.M2TS      0:15:51.367     0:00:23.189     80,621,568      27,813          
00501.M2TS      0:16:14.556     0:00:49.299     153,477,120     24,905          
00507.M2TS      0:17:03.856     0:00:36.494     114,634,752     25,129          
00502.M2TS      0:17:40.350     0:29:42.864     5,760,780,288   25,850          
00513.M2TS      0:47:23.215     0:00:57.766     181,979,136     25,202          
00515.M2TS      0:48:20.981     0:00:50.216     145,803,264     23,228          
00508.M2TS      0:49:11.198     0:15:01.317     3,403,960,320   30,213          
00510.M2TS      1:04:12.515     0:00:26.568     106,364,928     32,028          
00511.M2TS      1:04:39.083     1:21:35.515     18,096,205,824  29,572          

CHAPTERS:

Number          Time In         Length          Avg Video Rate  Max 1-Sec Rate  Max 1-Sec Time  Max 5-Sec Rate  Max 5-Sec Time  Max 10Sec Rate  Max 10Sec Time  Avg Frame Size  Max Frame Size  Max Frame Time  
------          -------         ------          --------------  --------------  --------------  --------------  --------------  --------------  --------------  --------------  --------------  --------------  
1               0:00:00.000     0:11:24.683     19,163 kbps     30,660 kbps     00:10:49.023    27,539 kbps     00:10:44.977    26,651 kbps     00:10:40.806    99,903 bytes    359,560 bytes   00:02:03.456    
2               0:11:24.683     0:05:23.364     19,693 kbps     31,050 kbps     00:11:26.519    29,729 kbps     00:11:24.683    27,725 kbps     00:11:40.533    102,671 bytes   303,964 bytes   00:16:12.304    
3               0:16:48.048     0:08:50.029     17,601 kbps     37,193 kbps     00:22:35.312    29,357 kbps     00:22:31.600    25,280 kbps     00:22:33.310    91,764 bytes    301,985 bytes   00:24:54.951    
4               0:25:38.078     0:10:13.571     19,306 kbps     37,871 kbps     00:31:05.530    31,623 kbps     00:31:03.820    26,813 kbps     00:31:03.820    100,652 bytes   334,168 bytes   00:31:06.531    
5               0:35:51.649     0:08:30.927     16,965 kbps     31,969 kbps     00:37:11.520    29,258 kbps     00:37:08.893    26,619 kbps     00:37:06.390    88,449 bytes    374,675 bytes   00:36:36.485    
6               0:44:22.576     0:07:50.344     19,637 kbps     32,951 kbps     00:49:29.633    30,718 kbps     00:49:27.088    28,748 kbps     00:49:23.752    102,380 bytes   414,399 bytes   00:49:30.634    
7               0:52:12.921     0:08:58.454     21,676 kbps     37,916 kbps     00:59:10.922    34,659 kbps     00:59:08.419    32,479 kbps     00:59:08.419    113,006 bytes   439,004 bytes   00:58:41.851    
8               1:01:11.375     0:07:00.837     22,930 kbps     33,626 kbps     01:06:16.805    29,697 kbps     01:07:47.187    27,510 kbps     01:04:06.425    119,547 bytes   352,768 bytes   01:07:07.982    
9               1:08:12.212     0:08:36.724     22,335 kbps     38,729 kbps     01:12:18.500    35,511 kbps     01:12:17.791    31,597 kbps     01:12:17.791    116,444 bytes   444,306 bytes   01:12:19.501    
10              1:16:48.937     0:05:50.725     21,731 kbps     34,177 kbps     01:17:17.340    29,429 kbps     01:21:09.197    28,292 kbps     01:22:21.478    113,293 bytes   279,459 bytes   01:19:51.369    
11              1:22:39.662     0:06:42.068     27,670 kbps     41,839 kbps     01:27:23.613    37,317 kbps     01:26:46.576    37,006 kbps     01:26:45.533    144,259 bytes   619,052 bytes   01:26:42.780    
12              1:29:21.731     0:11:22.181     17,722 kbps     38,697 kbps     01:30:12.907    37,177 kbps     01:30:04.273    36,947 kbps     01:30:03.898    92,392 bytes    452,893 bytes   01:29:54.889    
13              1:40:43.912     0:10:03.853     25,841 kbps     39,292 kbps     01:44:58.458    37,314 kbps     01:50:35.170    36,914 kbps     01:48:11.234    134,722 bytes   496,685 bytes   01:47:16.805    
14              1:50:47.765     0:11:59.218     29,894 kbps     40,488 kbps     01:54:25.108    37,304 kbps     01:56:40.743    37,015 kbps     01:56:13.424    155,854 bytes   587,052 bytes   01:56:45.706    
15              2:02:46.984     0:07:11.973     16,286 kbps     38,766 kbps     02:03:12.760    35,317 kbps     02:09:27.384    31,817 kbps     02:09:23.505    84,907 bytes    516,941 bytes   02:03:09.798    
16              2:09:58.957     0:16:15.641     13,845 kbps     38,543 kbps     02:11:13.448    37,092 kbps     02:10:55.597    36,874 kbps     02:10:51.468    72,184 bytes    386,905 bytes   02:10:26.777    

STREAM DIAGNOSTICS:

File            PID             Type            Codec           Language                Seconds                 Bitrate                 Bytes           Packets         
----            ---             ----            -----           --------                --------------          --------------          -------------   -----           
00503.M2TS      4113 (0x1011)   0x1B            AVC                                     356.523                 18,495                  824,250,574     4,484,525       
00503.M2TS      4352 (0x1100)   0x86            DTS-HD MA       eng (English)           356.523                 4,697                   209,344,572     1,193,981       
00503.M2TS      4353 (0x1101)   0x81            AC3             eng (English)           356.523                 224                     9,986,816       55,730          
00503.M2TS      4354 (0x1102)   0x81            AC3             eng (English)           356.523                 224                     9,986,816       55,730          
00503.M2TS      4355 (0x1103)   0x81            AC3             spa (Spanish)           356.523                 640                     28,533,760      167,190         
00503.M2TS      4356 (0x1104)   0x81            AC3             eng (English)           356.523                 224                     9,986,816       55,730          
00503.M2TS      4608 (0x1200)   0x90            PGS             eng (English)           356.523                 20                      875,155         5,074           
00503.M2TS      4609 (0x1201)   0x90            PGS             eng (English)           356.523                 24                      1,064,817       6,204           
00503.M2TS      4610 (0x1202)   0x90            PGS             spa (Spanish)           356.523                 19                      867,432         5,018           
00505.M2TS      4113 (0x1011)   0x1B            AVC                                     43.418                  19,422                  105,406,981     573,453         
00505.M2TS      4352 (0x1100)   0x86            DTS-HD MA       eng (English)           43.418                  4,573                   24,817,304      142,001         
00505.M2TS      4353 (0x1101)   0x81            AC3             eng (English)           43.418                  225                     1,219,456       6,805           
00505.M2TS      4354 (0x1102)   0x81            AC3             eng (English)           43.418                  225                     1,219,456       6,805           
00505.M2TS      4355 (0x1103)   0x81            AC3             spa (Spanish)           43.418                  642                     3,484,160       20,415          
00505.M2TS      4356 (0x1104)   0x81            AC3             eng (English)           43.418                  225                     1,219,456       6,805           
00505.M2TS      4608 (0x1200)   0x90            PGS             eng (English)           43.418                  19                      104,792         626             
00505.M2TS      4609 (0x1201)   0x90            PGS             eng (English)           43.418                  22                      117,328         701             
00505.M2TS      4610 (0x1202)   0x90            PGS             spa (Spanish)           43.418                  19                      102,905         613             
00509.M2TS      4113 (0x1011)   0x1B            AVC                                     20.896                  22,143                  57,836,956      314,638         
00509.M2TS      4352 (0x1100)   0x86            DTS-HD MA       eng (English)           20.896                  4,220                   11,022,228      63,553          
00509.M2TS      4353 (0x1101)   0x81            AC3             eng (English)           20.896                  225                     588,672         3,285           
00509.M2TS      4354 (0x1102)   0x81            AC3             eng (English)           20.896                  225                     588,672         3,285           
00509.M2TS      4355 (0x1103)   0x81            AC3             spa (Spanish)           20.896                  644                     1,681,920       9,855           
00509.M2TS      4356 (0x1104)   0x81            AC3             eng (English)           20.896                  225                     588,672         3,285           
00509.M2TS      4608 (0x1200)   0x90            PGS             eng (English)           20.896                  37                      95,446          570             
00509.M2TS      4609 (0x1201)   0x90            PGS             eng (English)           20.896                  38                      98,252          584             
00509.M2TS      4610 (0x1202)   0x90            PGS             spa (Spanish)           20.896                  41                      106,017         626             
00514.M2TS      4113 (0x1011)   0x1B            AVC                                     135.093                 18,918                  319,465,370     1,738,138       
00514.M2TS      4352 (0x1100)   0x86            DTS-HD MA       eng (English)           135.093                 4,329                   73,096,192      418,069         
00514.M2TS      4353 (0x1101)   0x81            AC3             eng (English)           135.093                 224                     3,787,392       21,135          
00514.M2TS      4354 (0x1102)   0x81            AC3             eng (English)           135.093                 224                     3,787,392       21,135          
00514.M2TS      4355 (0x1103)   0x81            AC3             spa (Spanish)           135.093                 641                     10,821,120      63,405          
00514.M2TS      4356 (0x1104)   0x81            AC3             eng (English)           135.093                 224                     3,787,392       21,135          
00514.M2TS      4608 (0x1200)   0x90            PGS             eng (English)           135.093                 63                      1,059,814       6,061           
00514.M2TS      4609 (0x1201)   0x90            PGS             eng (English)           135.093                 63                      1,063,210       6,127           
00514.M2TS      4610 (0x1202)   0x90            PGS             spa (Spanish)           135.093                 58                      980,963         5,597           
00506.M2TS      4113 (0x1011)   0x1B            AVC                                     302.928                 20,181                  764,172,163     4,157,375       
00506.M2TS      4352 (0x1100)   0x86            DTS-HD MA       eng (English)           302.928                 4,560                   172,685,036     985,592         
00506.M2TS      4353 (0x1101)   0x81            AC3             eng (English)           302.928                 224                     8,486,912       47,360          
00506.M2TS      4354 (0x1102)   0x81            AC3             eng (English)           302.928                 224                     8,486,912       47,360          
00506.M2TS      4355 (0x1103)   0x81            AC3             spa (Spanish)           302.928                 640                     24,248,320      142,080         
00506.M2TS      4356 (0x1104)   0x81            AC3             eng (English)           302.928                 224                     8,486,912       47,360          
00506.M2TS      4608 (0x1200)   0x90            PGS             eng (English)           302.928                 47                      1,798,336       10,391          
00506.M2TS      4609 (0x1201)   0x90            PGS             eng (English)           302.928                 58                      2,215,143       12,917          
00506.M2TS      4610 (0x1202)   0x90            PGS             spa (Spanish)           302.928                 48                      1,811,749       10,439          
00512.M2TS      4113 (0x1011)   0x1B            AVC                                     91.633                  20,379                  233,419,348     1,269,881       
00512.M2TS      4352 (0x1100)   0x86            DTS-HD MA       eng (English)           91.633                  4,463                   51,121,552      292,261         
00512.M2TS      4353 (0x1101)   0x81            AC3             eng (English)           91.633                  224                     2,570,624       14,345          
00512.M2TS      4354 (0x1102)   0x81            AC3             eng (English)           91.633                  224                     2,570,624       14,345          
00512.M2TS      4355 (0x1103)   0x81            AC3             spa (Spanish)           91.633                  641                     7,344,640       43,035          
00512.M2TS      4356 (0x1104)   0x81            AC3             eng (English)           91.633                  224                     2,570,624       14,345          
00512.M2TS      4608 (0x1200)   0x90            PGS             eng (English)           91.633                  59                      674,154         3,859           
00512.M2TS      4609 (0x1201)   0x90            PGS             eng (English)           91.633                  63                      720,936         4,168           
00512.M2TS      4610 (0x1202)   0x90            PGS             spa (Spanish)           91.633                  54                      615,713         3,526           
00504.M2TS      4113 (0x1011)   0x1B            AVC                                     23.023                  20,506                  59,014,903      321,057         
00504.M2TS      4352 (0x1100)   0x86            DTS-HD MA       eng (English)           23.023                  4,600                   13,239,608      75,642          
00504.M2TS      4353 (0x1101)   0x81            AC3             eng (English)           23.023                  226                     649,600         3,625           
00504.M2TS      4354 (0x1102)   0x81            AC3             eng (English)           23.023                  226                     649,600         3,625           
00504.M2TS      4355 (0x1103)   0x81            AC3             spa (Spanish)           23.023                  645                     1,856,000       10,875          
00504.M2TS      4356 (0x1104)   0x81            AC3             eng (English)           23.023                  226                     649,600         3,625           
00504.M2TS      4608 (0x1200)   0x90            PGS             eng (English)           23.023                  7                       21,134          128             
00504.M2TS      4609 (0x1201)   0x90            PGS             eng (English)           23.023                  24                      68,657          400             
00504.M2TS      4610 (0x1202)   0x90            PGS             spa (Spanish)           23.023                  8                       22,338          136             
00501.M2TS      4113 (0x1011)   0x1B            AVC                                     49.132                  16,831                  103,370,194     562,477         
00501.M2TS      4352 (0x1100)   0x86            DTS-HD MA       eng (English)           49.132                  5,258                   32,292,796      183,618         
00501.M2TS      4353 (0x1101)   0x81            AC3             eng (English)           49.132                  225                     1,380,736       7,705           
00501.M2TS      4354 (0x1102)   0x81            AC3             eng (English)           49.132                  225                     1,380,736       7,705           
00501.M2TS      4355 (0x1103)   0x81            AC3             spa (Spanish)           49.132                  642                     3,944,960       23,115          
00501.M2TS      4356 (0x1104)   0x81            AC3             eng (English)           49.132                  225                     1,380,736       7,705           
00501.M2TS      4608 (0x1200)   0x90            PGS             eng (English)           49.132                  48                      293,637         1,687           
00501.M2TS      4609 (0x1201)   0x90            PGS             eng (English)           49.132                  57                      350,616         2,024           
00501.M2TS      4610 (0x1202)   0x90            PGS             spa (Spanish)           49.132                  47                      285,977         1,645           
00507.M2TS      4113 (0x1011)   0x1B            AVC                                     36.328                  17,404                  79,031,585      430,024         
00507.M2TS      4352 (0x1100)   0x86            DTS-HD MA       eng (English)           36.328                  5,073                   23,037,652      131,118         
00507.M2TS      4353 (0x1101)   0x81            AC3             eng (English)           36.328                  225                     1,022,336       5,705           
00507.M2TS      4354 (0x1102)   0x81            AC3             eng (English)           36.328                  225                     1,022,336       5,705           
00507.M2TS      4355 (0x1103)   0x81            AC3             spa (Spanish)           36.328                  643                     2,920,960       17,115          
00507.M2TS      4356 (0x1104)   0x81            AC3             eng (English)           36.328                  225                     1,022,336       5,705           
00507.M2TS      4608 (0x1200)   0x90            PGS             eng (English)           36.328                  4                       17,383          109             
00507.M2TS      4609 (0x1201)   0x90            PGS             eng (English)           36.328                  9                       41,785          256             
00507.M2TS      4610 (0x1202)   0x90            PGS             spa (Spanish)           36.328                  3                       14,011          90              
00502.M2TS      4113 (0x1011)   0x1B            AVC                                     1782.698                17,994                  4,009,623,265   21,816,365      
00502.M2TS      4352 (0x1100)   0x86            DTS-HD MA       eng (English)           1782.698                4,973                   1,108,148,128   6,301,433       
00502.M2TS      4353 (0x1101)   0x81            AC3             eng (English)           1782.698                224                     49,920,640      278,575         
00502.M2TS      4354 (0x1102)   0x81            AC3             eng (English)           1782.698                224                     49,920,640      278,575         
00502.M2TS      4355 (0x1103)   0x81            AC3             spa (Spanish)           1782.698                640                     142,630,400     835,725         
00502.M2TS      4356 (0x1104)   0x81            AC3             eng (English)           1782.698                224                     49,920,640      278,575         
00502.M2TS      4608 (0x1200)   0x90            PGS             eng (English)           1782.698                39                      8,585,492       49,586          
00502.M2TS      4609 (0x1201)   0x90            PGS             eng (English)           1782.698                44                      9,872,513       57,309          
00502.M2TS      4610 (0x1202)   0x90            PGS             spa (Spanish)           1782.698                38                      8,367,443       48,185          
00513.M2TS      4113 (0x1011)   0x1B            AVC                                     57.599                  18,132                  130,546,874     710,277         
00513.M2TS      4352 (0x1100)   0x86            DTS-HD MA       eng (English)           57.599                  4,290                   30,889,556      176,773         
00513.M2TS      4353 (0x1101)   0x81            AC3             eng (English)           57.599                  225                     1,618,176       9,030           
00513.M2TS      4354 (0x1102)   0x81            AC3             eng (English)           57.599                  225                     1,618,176       9,030           
00513.M2TS      4355 (0x1103)   0x81            AC3             spa (Spanish)           57.599                  642                     4,623,360       27,090          
00513.M2TS      4356 (0x1104)   0x81            AC3             eng (English)           57.599                  225                     1,618,176       9,030           
00513.M2TS      4608 (0x1200)   0x90            PGS             eng (English)           57.599                  35                      250,028         1,444           
00513.M2TS      4609 (0x1201)   0x90            PGS             eng (English)           57.599                  37                      267,063         1,557           
00513.M2TS      4610 (0x1202)   0x90            PGS             spa (Spanish)           57.599                  39                      281,605         1,621           
00515.M2TS      4113 (0x1011)   0x1B            AVC                                     50.050                  16,293                  101,931,865     554,671         
00515.M2TS      4352 (0x1100)   0x86            DTS-HD MA       eng (English)           50.050                  4,194                   26,238,848      150,389         
00515.M2TS      4353 (0x1101)   0x81            AC3             eng (English)           50.050                  225                     1,406,720       7,850           
00515.M2TS      4354 (0x1102)   0x81            AC3             eng (English)           50.050                  225                     1,406,720       7,850           
00515.M2TS      4355 (0x1103)   0x81            AC3             spa (Spanish)           50.050                  642                     4,019,200       23,550          
00515.M2TS      4356 (0x1104)   0x81            AC3             eng (English)           50.050                  225                     1,406,720       7,850           
00515.M2TS      4608 (0x1200)   0x90            PGS             eng (English)           50.050                  49                      307,191         1,773           
00515.M2TS      4609 (0x1201)   0x90            PGS             eng (English)           50.050                  53                      331,370         1,927           
00515.M2TS      4610 (0x1202)   0x90            PGS             spa (Spanish)           50.050                  51                      320,414         1,838           
00508.M2TS      4113 (0x1011)   0x1B            AVC                                     901.150                 22,218                  2,502,749,121   13,614,483      
00508.M2TS      4352 (0x1100)   0x86            DTS-HD MA       eng (English)           901.150                 4,944                   556,966,176     3,166,585       
00508.M2TS      4353 (0x1101)   0x81            AC3             eng (English)           901.150                 224                     25,237,632      140,835         
00508.M2TS      4354 (0x1102)   0x81            AC3             eng (English)           901.150                 224                     25,237,632      140,835         
00508.M2TS      4355 (0x1103)   0x81            AC3             spa (Spanish)           901.150                 640                     72,107,520      422,505         
00508.M2TS      4356 (0x1104)   0x81            AC3             eng (English)           901.150                 224                     25,237,632      140,835         
00508.M2TS      4608 (0x1200)   0x90            PGS             eng (English)           901.150                 36                      4,083,804       23,580          
00508.M2TS      4609 (0x1201)   0x90            PGS             eng (English)           901.150                 40                      4,543,606       26,392          
00508.M2TS      4610 (0x1202)   0x90            PGS             spa (Spanish)           901.150                 35                      3,934,840       22,699          
00510.M2TS      4113 (0x1011)   0x1B            AVC                                     26.401                  24,295                  80,177,635      436,123         
00510.M2TS      4352 (0x1100)   0x86            DTS-HD MA       eng (English)           26.401                  4,853                   16,015,992      91,105          
00510.M2TS      4353 (0x1101)   0x81            AC3             eng (English)           26.401                  226                     744,576         4,155           
00510.M2TS      4354 (0x1102)   0x81            AC3             eng (English)           26.401                  226                     744,576         4,155           
00510.M2TS      4355 (0x1103)   0x81            AC3             spa (Spanish)           26.401                  645                     2,127,360       12,465          
00510.M2TS      4356 (0x1104)   0x81            AC3             eng (English)           26.401                  226                     744,576         4,155           
00510.M2TS      4608 (0x1200)   0x90            PGS             eng (English)           26.401                  11                      37,251          231             
00510.M2TS      4609 (0x1201)   0x90            PGS             eng (English)           26.401                  21                      70,444          417             
00510.M2TS      4610 (0x1202)   0x90            PGS             spa (Spanish)           26.401                  14                      45,380          274             
00511.M2TS      4113 (0x1011)   0x1B            AVC                                     4895.349                21,438                  13,118,153,317  71,362,625      
00511.M2TS      4352 (0x1100)   0x86            DTS-HD MA       eng (English)           4895.349                5,157                   3,155,944,860   17,913,085      
00511.M2TS      4353 (0x1101)   0x81            AC3             eng (English)           4895.349                224                     137,074,560     764,925         
00511.M2TS      4354 (0x1102)   0x81            AC3             eng (English)           4895.349                224                     137,074,560     764,925         
00511.M2TS      4355 (0x1103)   0x81            AC3             spa (Spanish)           4895.349                640                     391,641,600     2,294,775       
00511.M2TS      4356 (0x1104)   0x81            AC3             eng (English)           4895.349                224                     137,074,560     764,925         
00511.M2TS      4608 (0x1200)   0x90            PGS             eng (English)           4895.349                19                      11,498,953      67,072          
00511.M2TS      4609 (0x1201)   0x90            PGS             eng (English)           4895.349                25                      15,070,334      88,111          
00511.M2TS      4610 (0x1202)   0x90            PGS             spa (Spanish)           4895.349                19                      11,409,468      66,620          

zzap64 is offline  
post #5076 of 5079 Old 04-07-2014, 05:03 PM
Member
 
zzap64's Avatar
 
Join Date: Dec 2006
Posts: 193
Mentioned: 0 Post(s)
Tagged: 0 Thread(s)
Quoted: 0 Post(s)
Liked: 10

[US] Zulu (1964)
Distributor: Twilight Time
Region: A, B, C
Aspect Ratio: 2.35:1
Code:
                                                                                                                Total   Video                                             
Title                                                           Codec   Length  Movie Size      Disc Size       Bitrate Bitrate Main Audio Track                          Secondary Audio Track
-----                                                           ------  ------- --------------  --------------  ------- ------- ------------------                        ---------------------
00000.MPLS                                                      AVC     2:18:21 44,577,064,704  46,212,885,127  42.96   34.99   DTS-HD Master 2.0 2089Kbps (48kHz/24-bit) DTS-HD Master 1.0 1076Kbps (48kHz/24-bit)
Code:

DISC INFO:

Disc Title:     ZULU
Disc Size:      46,212,885,127 bytes
Protection:     AACS
BD-Java:        Yes
BDInfo:         0.5.8

PLAYLIST REPORT:

Name:                   00000.MPLS
Length:                 2:18:21.334 (h:m:s.ms)
Size:                   44,577,064,704 bytes
Total Bitrate:          42.96 Mbps

VIDEO:

Codec                   Bitrate             Description     
-----                   -------             -----------     
MPEG-4 AVC Video        34993 kbps          1080p / 23.976 fps / 16:9 / High Profile 4.1

AUDIO:

Codec                           Language        Bitrate         Description     
-----                           --------        -------         -----------     
DTS-HD Master Audio             English         2089 kbps       2.0 / 48 kHz / 2089 kbps / 24-bit (DTS Core: 2.0 / 48 kHz / 1509 kbps / 24-bit / DN -8dB)
DTS-HD Master Audio             English         1076 kbps       1.0 / 48 kHz / 1076 kbps / 24-bit (DTS Core: 1.0 / 48 kHz / 768 kbps / 24-bit)
DTS-HD Master Audio             English         2029 kbps       2.0 / 48 kHz / 2029 kbps / 24-bit (DTS Core: 2.0 / 48 kHz / 1509 kbps / 24-bit / DN -8dB)
DTS Audio                       English         256 kbps        2.0 / 48 kHz / 256 kbps / 24-bit / DN -4dB

SUBTITLES:

Codec                           Language        Bitrate         Description     
-----                           --------        -------         -----------     
Presentation Graphics           English         25.470 kbps                     

FILES:

Name            Time In         Length          Size            Total Bitrate   
----            -------         ------          ----            -------------   
00037.M2TS      0:00:00.000     2:18:21.334     44,577,064,704  42,959          

CHAPTERS:

Number          Time In         Length          Avg Video Rate  Max 1-Sec Rate  Max 1-Sec Time  Max 5-Sec Rate  Max 5-Sec Time  Max 10Sec Rate  Max 10Sec Time  Avg Frame Size  Max Frame Size  Max Frame Time  
------          -------         ------          --------------  --------------  --------------  --------------  --------------  --------------  --------------  --------------  --------------  --------------  
1               0:00:00.000     0:13:03.199     31,808 kbps     39,247 kbps     00:11:17.009    38,040 kbps     00:08:19.540    37,913 kbps     00:04:57.505    165,823 bytes   419,806 bytes   00:06:04.864    
2               0:13:03.199     0:11:24.934     36,801 kbps     40,184 kbps     00:22:31.350    38,175 kbps     00:22:27.304    37,998 kbps     00:22:22.341    191,865 bytes   438,650 bytes   00:22:32.267    
3               0:24:28.133     0:11:00.868     34,662 kbps     39,412 kbps     00:25:41.206    37,959 kbps     00:25:37.244    37,875 kbps     00:24:56.536    180,711 bytes   446,672 bytes   00:35:29.001    
4               0:35:29.001     0:13:33.187     32,990 kbps     39,726 kbps     00:49:00.479    37,695 kbps     00:36:34.525    37,061 kbps     00:37:31.832    171,994 bytes   466,638 bytes   00:36:35.610    
5               0:49:02.189     0:07:40.126     35,853 kbps     39,256 kbps     00:49:58.620    38,094 kbps     00:50:55.719    37,935 kbps     00:50:55.719    186,922 bytes   412,368 bytes   00:51:04.603    
6               0:56:42.315     0:11:33.317     34,722 kbps     39,649 kbps     01:07:37.261    38,056 kbps     01:08:07.333    37,929 kbps     01:08:02.328    181,022 bytes   442,307 bytes   01:07:38.179    
7               1:08:15.633     0:12:35.588     35,442 kbps     39,606 kbps     01:18:21.905    38,136 kbps     01:18:17.818    37,992 kbps     01:18:12.813    184,779 bytes   450,197 bytes   01:18:22.823    
8               1:20:51.221     0:15:57.957     36,314 kbps     39,504 kbps     01:32:28.084    38,094 kbps     01:32:24.121    37,892 kbps     01:35:55.416    189,324 bytes   419,545 bytes   01:31:56.469    
9               1:36:49.178     0:17:40.726     36,460 kbps     40,743 kbps     01:45:37.664    38,160 kbps     01:43:59.024    37,950 kbps     01:36:52.681    190,086 bytes   518,169 bytes   01:45:38.623    
10              1:54:29.904     0:11:05.998     34,721 kbps     39,426 kbps     02:02:12.158    38,050 kbps     01:59:57.940    37,883 kbps     01:59:52.935    181,019 bytes   433,964 bytes   01:57:51.397    
11              2:05:35.903     0:11:19.762     35,146 kbps     39,518 kbps     02:10:52.636    38,150 kbps     02:13:51.148    37,943 kbps     02:13:49.104    183,234 bytes   412,616 bytes   02:14:44.993    
12              2:16:55.665     0:01:25.668     32,820 kbps     39,488 kbps     02:17:03.465    38,095 kbps     02:17:43.421    37,971 kbps     02:16:56.208    171,193 bytes   464,090 bytes   02:17:04.883    

STREAM DIAGNOSTICS:

File            PID             Type            Codec           Language                Seconds                 Bitrate                 Bytes           Packets         
----            ---             ----            -----           --------                --------------          --------------          -------------   -----           
00037.M2TS      4113 (0x1011)   0x1B            AVC                                     8301.168                34,994                  36,311,211,974  197,459,461     
00037.M2TS      4352 (0x1100)   0x86            DTS-HD MA       eng (English)           8301.168                2,089                   2,167,777,300   13,094,054      
00037.M2TS      4353 (0x1101)   0x86            DTS-HD MA       eng (English)           8301.168                1,076                   1,116,642,008   7,002,344       
00037.M2TS      4354 (0x1102)   0x86            DTS-HD MA       eng (English)           8301.168                2,029                   2,105,409,428   12,629,380      
00037.M2TS      4355 (0x1103)   0x82            DTS             eng (English)           8301.168                255                     264,605,340     1,556,502       
00037.M2TS      4608 (0x1200)   0x90            PGS             eng (English)           8301.168                25                      26,428,922      152,325         

zzap64 is offline  
post #5077 of 5079 Old 05-17-2014, 07:24 PM
Senior Member
 
rdodolak's Avatar
 
Join Date: Feb 2006
Posts: 403
Mentioned: 0 Post(s)
Tagged: 0 Thread(s)
Quoted: 0 Post(s)
Liked: 13
Looks like this thread is officially dead given that the OPs haven't been updated in almost 16 months along with this news posted to Cinema Squid's web site ... frown.gif

http://www.cinemasquid.com/news/2014-04-21
rdodolak is offline  
post #5078 of 5079 Old 05-17-2014, 11:02 PM
Senior Member
 
CrazyNurse's Avatar
 
Join Date: Nov 2006
Location: So*Cal
Posts: 306
Mentioned: 0 Post(s)
Tagged: 0 Thread(s)
Quoted: 1 Post(s)
Liked: 41
Is there another source (thread or site) that has current and future BD MPLS info?

Handbrake doesn't always default to the playlist I want (plain English non-commentary)

I have BDInfo which can narrow down the playlists but even then sometimes it's a wild guess between 2-3 identical appearing playlists e.g. 800, 801, 802 all the exact same length.

Am I doing something wrong?

Pioneer PDP-5071HD, Panasonic TC-P60ZT60, Denon 3311CI, Oppo BDP-93, Emotiva XPA-5, Definitive Mythos ST, Mythos 8, Gem XL, SVS SB-13 Ultra
CrazyNurse is offline  
post #5079 of 5079 Old 05-20-2014, 01:06 PM
AVS Special Member
 
Phantom Stranger's Avatar
 
Join Date: Feb 2008
Location: Between the known and the unknown...
Posts: 3,160
Mentioned: 0 Post(s)
Tagged: 0 Thread(s)
Quoted: 77 Post(s)
Liked: 99
Quote:
Originally Posted by rdodolak View Post

Looks like this thread is officially dead given that the OPs haven't been updated in almost 16 months along with this news posted to Cinema Squid's web site ... frown.gif

http://www.cinemasquid.com/news/2014-04-21
CinemaSquid maintained this thread far longer than I imagined, it was an excellent resource. You can still access many of his old pages by clicking on the appropriate movie in AVS's very own Picture Quality Tiers.

A few other sites occasionally post new BDInfo scans, including DVDBeaver and a screen comparison site I can't remember at the moment.

http://www.caps-a-holic.com/hd_vergleiche/test.php
Phantom Stranger is offline  
Reply Blu-ray Software

Tags
Blu Ray Movies , Enders Game Ultraviolet Digital Copy Blu Ray
Gear in this thread - Enders by PriceGrabber.com

Thread Tools
Show Printable Version Show Printable Version
Email this Page Email this Page


Forum Jump: 

Posting Rules  
You may not post new threads
You may not post replies
You may not post attachments
You may not edit your posts

BB code is On
Smilies are On
[IMG] code is On
HTML code is Off
Trackbacks are Off
Pingbacks are Off
Refbacks are Off