Iview 3200 Can't See Edit Shows - AVS Forum | Home Theater Discussions And Reviews
Forum Jump: 
 1Likes
  • 1 Post By eherberg
 
Thread Tools
post #1 of 7 Old 04-06-2017, 09:56 AM - Thread Starter
Newbie
 
spirittoo's Avatar
 
Join Date: Oct 2015
Posts: 9
Mentioned: 0 Post(s)
Tagged: 0 Thread(s)
Quoted: 1 Post(s)
Liked: 0
Question Iview 3200 Can't See Edit Shows

Well sir ... I am using the program VideoReDo to edit out the commercials ... on the computer I see and can access them. On the Iview 3200STB the folder I created for the edit shows is there, but when I open it nothing. What am I doing wrong?
spirittoo is online now  
Sponsored Links
Advertisement
 
post #2 of 7 Old 04-06-2017, 10:50 PM
Senior Member
 
eherberg's Avatar
 
Join Date: Mar 2011
Posts: 241
Mentioned: 1 Post(s)
Tagged: 0 Thread(s)
Quoted: 79 Post(s)
Liked: 21
Are you changing the file type to mkv or mp4 or something else during editing? If so - are you then using the 'Movies' option to enter the folder? Using the PVR folder will only show files with the .mts extension.
mdbratch likes this.
eherberg is online now  
post #3 of 7 Old 04-07-2017, 10:26 AM - Thread Starter
Newbie
 
spirittoo's Avatar
 
Join Date: Oct 2015
Posts: 9
Mentioned: 0 Post(s)
Tagged: 0 Thread(s)
Quoted: 1 Post(s)
Liked: 0
Arrow Used Default format

I didn't change anything ... just used the default. From mediainfo ... before and after editing ...

General
ID : 2457 (0x999)
Complete name : K:\HBPVR\MeTV-03012017-2330.mts
Format : BDAV
Format/Info : Blu-ray Video
File size : 198 MiB
Duration : 9 min 51 s
Overall bit rate mode : Variable
Overall bit rate : 2 809 kb/s
Video
ID : 65 (0x41)
Menu ID : 2 (0x2)
Format : MPEG Video
Format version : Version 2
Format profile : Main@Main
Format settings, BVOP : Yes
Format settings, Matrix : Custom
Format settings, GOP : Variable
Format settings, picture structure : Frame
Codec ID : 2
Duration : 9 min 51 s
Bit rate mode : Constant
Bit rate : 2 491 kb/s
Maximum bit rate : 2 404 kb/s
Width : 704 pixels
Height : 480 pixels
Display aspect ratio : 16:9
Frame rate : 29.970 (30000/1001) FPS
Standard : NTSC
Color space : YUV
Chroma subsampling : 4:2:0
Bit depth : 8 bits
Scan type : Interlaced
Scan order : Top Field First
Compression mode : Lossy
Bits/(Pixel*Frame) : 0.246
Time code of first frame : 02:51:11:01
Time code source : Group of pictures header
GOP, Open/Closed : Open
Stream size : 176 MiB (89%)
Color primaries : BT.601 NTSC
Transfer characteristics : BT.601
Matrix coefficients : BT.601
Audio
ID : 67 (0x43)
Menu ID : 2 (0x2)
Format : AC-3
Format/Info : Audio Coding 3
Format settings, Endianness : Big
Codec ID : 129
Duration : 9 min 51 s
Bit rate mode : Constant
Bit rate : 192 kb/s
Channel(s) : 2 channels
Channel positions : Front: L R
Sampling rate : 48.0 kHz
Frame rate : 31.250 FPS (1536 spf)
Bit depth : 16 bits
Compression mode : Lossy
Delay relative to video : -601 ms
Stream size : 13.5 MiB (7%)
Language : English
Service kind : Complete Main
Text #1
ID : 65 (0x41)-CC1
Menu ID : 2 (0x2)
Format : EIA-608
Muxing mode : A/53 / DTVCC Transport
Muxing mode, more info : Muxed in Video #1
Duration : 9 min 51 s
Bit rate mode : Constant
Stream size : 0.00 Byte (0%)
CaptionServiceName : CC1
Text #2
ID : 65 (0x41)-1
Menu ID : 2 (0x2)
Format : EIA-708
Muxing mode : A/53 / DTVCC Transport
Muxing mode, more info : Muxed in Video #1
Duration : 9 min 51 s
Bit rate mode : Constant
Stream size : 0.00 Byte (0%)
Text #3
ID : 65 (0x41)-2
Menu ID : 2 (0x2)
Format : EIA-708
Muxing mode : A/53 / DTVCC Transport
Muxing mode, more info : Muxed in Video #1
Duration : 9 min 51 s
Bit rate mode : Constant
Stream size : 0.00 Byte (0%)
Menu
ID : 64 (0x40)
Menu ID : 2 (0x2)
Duration : 9 min 51 s
List : 65 (0x41) (MPEG Video) / 67 (0x43) (AC-3, English)
Language : / English


This is the info on the edit video
General
ID : 1 (0x1)
Complete name : K:\HBPVR_1\Gunsmoke-03022017-1300.ts
Format : MPEG-TS
File size : 895 MiB
Duration : 45 min 16 s
Overall bit rate mode : Variable
Overall bit rate : 2 762 kb/s
Video
ID : 65 (0x41)
Menu ID : 1 (0x1)
Format : MPEG Video
Format version : Version 2
Format profile : Main@Main
Format settings, BVOP : Yes
Format settings, Matrix : Custom
Format settings, GOP : M=3, N=15
Format settings, picture structure : Frame
Codec ID : 2
Duration : 45 min 17 s
Bit rate mode : Constant
Bit rate : 2 432 kb/s
Maximum bit rate : 2 404 kb/s
Width : 704 pixels
Height : 480 pixels
Display aspect ratio : 16:9
Frame rate : 29.970 (30000/1001) FPS
Standard : NTSC
Color space : YUV
Chroma subsampling : 4:2:0
Bit depth : 8 bits
Scan type : Interlaced
Scan order : Top Field First
Compression mode : Lossy
Bits/(Pixel*Frame) : 0.240
Time code of first frame : 00:00:00;00
Time code source : Group of pictures header
GOP, Open/Closed : Open
Stream size : 788 MiB (88%)
Color primaries : BT.601 NTSC
Transfer characteristics : BT.601
Matrix coefficients : BT.601
Audio
ID : 67 (0x43)
Menu ID : 1 (0x1)
Format : AC-3
Format/Info : Audio Coding 3
Format settings, Endianness : Big
Codec ID : 129
Duration : 45 min 16 s
Bit rate mode : Constant
Bit rate : 192 kb/s
Channel(s) : 2 channels
Channel positions : Front: L R
Sampling rate : 48.0 kHz
Frame rate : 31.250 FPS (1536 spf)
Bit depth : 16 bits
Compression mode : Lossy
Delay relative to video : 19 ms
Stream size : 62.2 MiB (7%)
Language : English
Service kind : Complete Main
Text #1
ID : 65 (0x41)-1
Menu ID : 1 (0x1)
Format : EIA-708
Muxing mode : A/53 / DTVCC Transport
Muxing mode, more info : Muxed in Video #1
Duration : 45 min 17 s
Bit rate mode : Constant
Stream size : 0.00 Byte (0%)
Text #2
ID : 65 (0x41)-2
Menu ID : 1 (0x1)
Format : EIA-708
Muxing mode : A/53 / DTVCC Transport
Muxing mode, more info : Muxed in Video #1
Duration : 45 min 17 s
Bit rate mode : Constant
Stream size : 0.00 Byte (0%)
spirittoo is online now  
 
post #4 of 7 Old 04-07-2017, 10:49 AM
Senior Member
 
eherberg's Avatar
 
Join Date: Mar 2011
Posts: 241
Mentioned: 1 Post(s)
Tagged: 0 Thread(s)
Quoted: 79 Post(s)
Liked: 21
Except it has changed. Total time is different between the 2 files -- plus you start off with a .mts file, but finish with a .ts file.
eherberg is online now  
post #5 of 7 Old 04-07-2017, 07:57 PM - Thread Starter
Newbie
 
spirittoo's Avatar
 
Join Date: Oct 2015
Posts: 9
Mentioned: 0 Post(s)
Tagged: 0 Thread(s)
Quoted: 1 Post(s)
Liked: 0
Arrow Didn't see that format

I don't see anything in the list with the VideoRedo software that has a .mts format ... I will double check but what if it isn't there?
spirittoo is online now  
post #6 of 7 Old 04-07-2017, 08:22 PM
Senior Member
 
eherberg's Avatar
 
Join Date: Mar 2011
Posts: 241
Mentioned: 1 Post(s)
Tagged: 0 Thread(s)
Quoted: 79 Post(s)
Liked: 21
Your first file is from the folder where recordings are stored -- HBPVR. Then your 2nd file is from a folder that you created - HBPVR_1. If that is the folder you are trying to access from the 'Movies' option from the menu - I don't believe it will show the .ts file you created. The manual lists the file types that are playable.
eherberg is online now  
post #7 of 7 Old Today, 08:40 AM - Thread Starter
Newbie
 
spirittoo's Avatar
 
Join Date: Oct 2015
Posts: 9
Mentioned: 0 Post(s)
Tagged: 0 Thread(s)
Quoted: 1 Post(s)
Liked: 0
Thumbs up Oh wow

Ohhhhhhh I see NOW. When I go into the "movie" option, there they are!!! Thank you thank you thank you!!!
spirittoo is online now  
Sponsored Links
Advertisement
 
Reply HDTV Recorders



Forum Jump: 

Posting Rules  
You may not post new threads
You may not post replies
You may not post attachments
You may not edit your posts

BB code is On
Smilies are On
[IMG] code is On
HTML code is Off
Trackbacks are Off
Pingbacks are Off
Refbacks are Off