AVS Forum - Search Results
Showing results 1 to 21 of 21
Search took 1.56 seconds.
Search: Keyword(s): ; Posts Made By: suntu ieu
Forum: Plasma Flat Panel Displays   01-06-2013, 05:52 AM
Replies: 9,988
Views: 1,043,232
Posted By suntu ieu
anyone care to share some good sound settings ?...

anyone care to share some good sound settings ? im having trouble to find optimal settings.
Forum: Xbox Area   12-26-2012, 07:07 AM
Replies: 19
Views: 2,941
Posted By suntu ieu
YCbCr 709 and Expanded.

YCbCr 709 and Expanded.
Forum: Plasma Flat Panel Displays   12-25-2012, 12:43 PM
Replies: 9,988
Views: 1,043,232
Posted By suntu ieu
Quote:Originally Posted by...

Quote:Originally Posted by Jonhern http://www.avsforum.com/img/forum/go_quote.gif...
Forum: Plasma Flat Panel Displays   12-25-2012, 01:25 AM
Replies: 9,988
Views: 1,043,232
Posted By suntu ieu
Quote:Originally Posted by...

Quote:Originally Posted by gomess023 http://www.avsforum.com/img/forum/go_quote.gif...
Forum: Plasma Flat Panel Displays   12-24-2012, 12:19 PM
Replies: 9,988
Views: 1,043,232
Posted By suntu ieu
@ HD Master watching movies and tv is...

@ HD Master


watching movies and tv is perfect.. but gaming is pain..



game

contrast 46
Forum: Plasma Flat Panel Displays   12-24-2012, 11:48 AM
Replies: 9,988
Views: 1,043,232
Posted By suntu ieu
i want to report that this tv (tx-p42stw50)sucks...

i want to report that this tv (tx-p42stw50)sucks in gaming.. input lag is a bitch and im gonna return this **** soon as possible... picture is too dark and i cant see a **** when playing games......
Forum: Plasma Flat Panel Displays   12-22-2012, 01:55 PM
Replies: 9,988
Views: 1,043,232
Posted By suntu ieu
Thanks for all the replies. Do i have to break...

Thanks for all the replies. Do i have to break in with some video ? Is there a one specific video or i can use some slidshow from internet ?
Forum: Plasma Flat Panel Displays   12-22-2012, 05:23 AM
Replies: 9,988
Views: 1,043,232
Posted By suntu ieu
why its not recommended to play games first 200...

why its not recommended to play games first 200 hours on this plasma ? i really play a lot and 200 hours its a long period
Forum: Plasma Flat Panel Displays   12-19-2012, 09:59 AM
Replies: 9,988
Views: 1,043,232
Posted By suntu ieu
hallo. can someone please tell me a difference...

hallo. can someone please tell me a difference between stw50 and st50 . im living in germany and they dont have st50. also is this tv any good for gaming in xbox ?


thank you
Forum: Blu-ray Players   01-02-2012, 11:23 AM
Replies: 6,387
Views: 1,502,150
Posted By suntu ieu
I have 550. The picture is sometimes very...

I have 550. The picture is sometimes very unclear and that happens on the same scenes of the movies. I have tried all hdmi cables, tv settings, second tv... nothing.


I have made two pics and...
Forum: Blu-ray Players   03-06-2011, 12:52 PM
Replies: 6,387
Views: 1,502,150
Posted By suntu ieu
How to convert mkv files on the easiest way ?...

How to convert mkv files on the easiest way ? Handbrake is out of the question since tak 4 hours to convert 3 GB. thank you
Forum: Blu-ray Players   03-04-2011, 06:28 AM
Replies: 6,387
Views: 1,502,150
Posted By suntu ieu
I'v updated player. Now everything is ok. Thank...

I'v updated player. Now everything is ok. Thank you http://www.avsforum.com/avs-vb/images/smilies/smile.gif
Forum: Blu-ray Players   03-03-2011, 12:19 PM
Replies: 6,387
Views: 1,502,150
Posted By suntu ieu
Blurays plays fine Here it is General ...

Blurays plays fine

Here it is
General
Unique ID : 213160690272438356656061879090631050977 (0xA05D41715FA5C47B4C6E09737CD686E1)
Complete name :...
Forum: Blu-ray Players   03-03-2011, 10:42 AM
Replies: 6,387
Views: 1,502,150
Posted By suntu ieu
HDMI ...res 1080p.. also tv is full hd

HDMI ...res 1080p.. also tv is full hd
Forum: Blu-ray Players   03-03-2011, 09:58 AM
Replies: 6,387
Views: 1,502,150
Posted By suntu ieu
Lol.. I don't know how to do it. i do...

Lol..


I don't know how to do it. i do not have any audio or video problems when i playing the movies( xbox, pc,)

ONLY when i watch it with this player.. there is no these black spaces ( up &...
Forum: Blu-ray Players   03-03-2011, 09:10 AM
Replies: 6,387
Views: 1,502,150
Posted By suntu ieu
Stream size : 1.59 GiB (83%) Writing library :...

Stream size : 1.59 GiB (83%)
Writing library : x264 core 106 r1732 b20059a
Encoding settings : cabac=1 / ref=3 / deblock=1:0:0 / analyse=0x3:0x113 / me=hex / subme=7 / psy=1 / psy_rd=1.00:0.00 /...
Forum: Blu-ray Players   03-03-2011, 08:56 AM
Replies: 6,387
Views: 1,502,150
Posted By suntu ieu
I have a LG BD 550 and i can't to figure it out...

I have a LG BD 550 and i can't to figure it out how to play files(mkv,mp4) in original size. I mean, on tv i get streched picture. 16:9 original and 16:9 full options are useless.

Thank you very...
Forum: Speakers   01-24-2011, 10:06 AM
Replies: 0
Views: 411
Posted By suntu ieu
Hi to all. I have this lcd tv and 'game mode' is...

Hi to all. I have this lcd tv and 'game mode' is turned on since i play xbox 360.

Problem is that tv automatically turn on 'custom mode' for sound when 'game mode' is on, however the sound is...
Forum: LCD Flat Panel Displays   01-07-2011, 06:51 PM
Replies: 3
Views: 4,494
Posted By suntu ieu
standard Backlight ; 8 contrast ;...

standard


Backlight ; 8

contrast ; 91

brightness ; 66

sharpness ; 10
Forum: General Gaming Help   01-06-2011, 05:07 AM
Replies: 17
Views: 3,006
Posted By suntu ieu
It doesn't have in picture options . Is it...

It doesn't have in picture options . Is it possible that is the option when i rename the source to game?

However I don't see much differences when I rename it.
Forum: General Gaming Help   01-06-2011, 03:35 AM
Replies: 17
Views: 3,006
Posted By suntu ieu
Quote:Originally Posted by darklordjames...

Quote:Originally Posted by darklordjames http://www.avsforum.com/img/forum/go_quote.gif (http://www.avsforum.com/forum/post/19737973)

On your Samsung, look for a Game Mode setting to turn on....
Showing results 1 to 21 of 21

 
Forum Jump: