or Connect
AVS › AVS Forum › Blu-ray & HD DVD › Blu-ray Software › Best Pan's Labyrinth release?
New Posts  All Forums:Forum Nav:

Best Pan's Labyrinth release? - Page 3

post #61 of 157
I just got the UK version for the PQ. Last night I compared it with my bought-on-release US HD DVD. The differences are well noted in the screenshots already posted, and I could see them clearly when swapping still frames between the UK & the US, although on my 53" they are a bit harder to notice in motion. However, owning the UK version, there is a certain peace of mind that you're watching the "best" version for PQ, though!

What I was surprised by, not having played the HD DVD for a while (and presumably these comments apply to the US blu as well) was the improvement in the US editions over the UK regarding the presentation of some special features -

* Director's Notebook is simply a series of featurettes in the UK version, whereas the US edition offers you both an selectable Index like the UK, or you can flick through HD pages of the Notebooks, with clickable links to watch the featurettes. This is a nice enhancement of the material.

* Comics are HD, and animated. UK presents "comic sketches" which look SD and are actually different entirely to the US content.

* Posters are obviously HD and much clearer on US disc, look muddy and SD on UK

* There are a bunch of HD galleries of creature design, production design, and production scrapbook. UK only features a creature gallery as a hidden feature. Again, these look SD compared with the sharp images of the US disc.

US exclusives -
PiP track (can't comment, never watched it)
Charlie Rose show (48 mins)
Extra US trailer & 8 TV spots
Animated Comics
3 Production Galleries

UK exclusives -
Del Toro Guardian interview at the NFT
DVD comic sketches

While I'm glad to have picked up the UK blu for the PQ, I think when wanting to look at the extras, the US set has more elegant menus and the enhancements I listed above. I thought I'd post this as I don't remember ever reading about the differences in presentation of extras on the discs before.
post #62 of 157
How did you feel about the audio comparison?
post #63 of 157
Quote:
Originally Posted by bunkaroo View Post

How did you feel about the audio comparison?

To be honest, I didn't even bother to compare them. With the time I have available for my hobby, comparing audio gets bumped for picture comparisons. Technically the US is the best, but some folk say the DD on the UK is excellent also. I'm of the camp that audio does not have to be loseless to be excellent so I don't know if my ol' ears would necessarily notice a difference.

I felt the differences between the PQ & AQ of the different discs had been well covered, but the interesting differences in the way the extras were presented hadn't been touched on. That was the focus of my post.
post #64 of 157
If only the UK release had lossless audio...
post #65 of 157
Quote:
Originally Posted by Bleddyn H Williams View Post

I just got the UK version for the PQ. Last night I compared it with my bought-on-release US HD DVD. The differences are well noted in the screenshots already posted, and I could see them clearly when swapping still frames between the UK & the US, although on my 53" they are a bit harder to notice in motion. However, owning the UK version, there is a certain peace of mind that you're watching the "best" version for PQ, though!

While I'm glad to have picked up the UK blu for the PQ, I think when wanting to look at the extras, the US set has more elegant menus and the enhancements I listed above. I thought I'd post this as I don't remember ever reading about the differences in presentation of extras on the discs before.

Thank you for the in-depth comparison of the two releases. A shame the UK BD is marred by the lack of lossless audio.
post #66 of 157
NORDIC region B disc specs:

Code:
DISC INFO:

Disc Title:     PANS LABYRINT
Disc Size:      41*003*755*996 bytes
Protection:     AACS
BD-Java:        No
BDInfo:         0.5.4

PLAYLIST REPORT:

Name:                   00000.MPLS
Length:                 1:58:55 (h:m:s)
Size:                   34*862*450*688 bytes
Total Bitrate:          39,09 Mbps

VIDEO:

Codec                   Bitrate             Description     
-----                   -------             -----------     
MPEG-4 AVC Video        31937 kbps          1080p / 23,976 fps / 16:9 / High Profile 4.1

AUDIO:

Codec                           Language        Bitrate         Description     
-----                           --------        -------         -----------     
Dolby Digital Audio             Spanish         640 kbps        5.1 / 48 kHz / 640 kbps / DN -4dB
DTS-HD Master Audio             Spanish         4237 kbps       5.1 / 48 kHz / 4237 kbps / 24-bit (DTS Core: 5.1 / 48 kHz / 1509 kbps / 24-bit / DN -4dB)
Dolby Digital Audio             English         224 kbps        2.0 / 48 kHz / 224 kbps / DN -9dB

SUBTITLES:

Codec                           Language        Bitrate         Description     
-----                           --------        -------         -----------     
Presentation Graphics           Swedish         13,155 kbps                     
Presentation Graphics           Danish          13,815 kbps                     
Presentation Graphics           Norwegian       12,639 kbps                     
Presentation Graphics           Finnish         14,522 kbps                     

FILES:

Name            Time In         Length          Size            Total Bitrate   
----            -------         ------          ----            -------------   
00000.M2TS      0:00:00.000     1:58:55.128     34*862*438*400  39*088          
00037.M2TS      1:58:55.128     0:00:00.417     12*288          236
post #67 of 157
If the nordic has same pic as UK it could be the best version yet though not english friendly but since i´m swedish it could be perfect even though i prefer english subs.
post #68 of 157
from what I heard the PQ is even supposed to be better than the UK disc. audio is reported being a bit worse though, but not as bad as the french HD DVD.
post #69 of 157
You can´t mean worse audio than UK disc since the UK have only DD5.1 and this DTS-HD MA?
post #70 of 157
afaik its pitch related.
post #71 of 157
Quote:
Originally Posted by Thunderbolt8 View Post

afaik its pitch related.

Quote:
Originally Posted by trisyinate View Post


"Audio sounds kinda like it's been ran through a bad timestretching algorithm, same issue as the french HD DVD but to much lesser extent. First scene is a bit of a blockfest but after that it seems quite fine, certainly a lot better than the UK BD which was thought to have the best PQ."

Nordic AVC (this) vs UK VC1
http://pic.phyrefile.com/h/hy/hymenf.../06/14/a01.png
http://pic.phyrefile.com/h/hy/hymenf.../06/14/a02.png

http://pic.phyrefile.com/h/hy/hymenf.../06/14/a03.png
http://pic.phyrefile.com/h/hy/hymenf.../06/14/a04.png

http://pic.phyrefile.com/h/hy/hymenf.../06/14/a05.png
http://pic.phyrefile.com/h/hy/hymenf.../06/14/a06.png

http://pic.phyrefile.com/h/hy/hymenf.../06/14/a07.png
http://pic.phyrefile.com/h/hy/hymenf.../06/14/a08.png

http://pic.phyrefile.com/h/hy/hymenf.../06/14/a09.png
http://pic.phyrefile.com/h/hy/hymenf.../06/14/a10.png

http://pic.phyrefile.com/h/hy/hymenf.../06/14/a11.png
http://pic.phyrefile.com/h/hy/hymenf.../06/14/a12.png

http://pic.phyrefile.com/h/hy/hymenf.../06/14/a13.png
http://pic.phyrefile.com/h/hy/hymenf.../06/14/a14.png

http://pic.phyrefile.com/h/hy/hymenf.../06/14/a15.png
http://pic.phyrefile.com/h/hy/hymenf.../06/14/a16.png

http://pic.phyrefile.com/h/hy/hymenf.../06/14/a17.png
http://pic.phyrefile.com/h/hy/hymenf.../06/14/a18.png

http://pic.phyrefile.com/h/hy/hymenf.../06/14/a19.png
http://pic.phyrefile.com/h/hy/hymenf.../06/14/a20.png

http://pic.phyrefile.com/h/hy/hymenf.../06/14/a21.png
http://pic.phyrefile.com/h/hy/hymenf.../06/14/a22.png

http://pic.phyrefile.com/h/hy/hymenf.../06/14/a23.png
http://pic.phyrefile.com/h/hy/hymenf.../06/14/a24.png

http://pic.phyrefile.com/h/hy/hymenf.../06/14/a25.png
http://pic.phyrefile.com/h/hy/hymenf.../06/14/a26.png

http://pic.phyrefile.com/h/hy/hymenf.../06/14/a27.png
http://pic.phyrefile.com/h/hy/hymenf.../06/14/a28.png

http://pic.phyrefile.com/h/hy/hymenf.../06/14/a29.png
http://pic.phyrefile.com/h/hy/hymenf.../06/14/a30.png

http://pic.phyrefile.com/h/hy/hymenf.../06/14/a31.png
http://pic.phyrefile.com/h/hy/hymenf.../06/14/a32.png

http://pic.phyrefile.com/h/hy/hymenf.../06/14/a33.png
http://pic.phyrefile.com/h/hy/hymenf.../06/14/a34.png

http://pic.phyrefile.com/h/hy/hymenf.../06/14/a35.png
http://pic.phyrefile.com/h/hy/hymenf.../06/14/a36.png

http://pic.phyrefile.com/h/hy/hymenf.../06/14/a37.png
http://pic.phyrefile.com/h/hy/hymenf.../06/14/a38.png

http://pic.phyrefile.com/h/hy/hymenf.../06/14/a39.png
http://pic.phyrefile.com/h/hy/hymenf.../06/14/a40.png

http://pic.phyrefile.com/h/hy/hymenf.../06/14/a41.png
http://pic.phyrefile.com/h/hy/hymenf.../06/14/a42.png

http://pic.phyrefile.com/h/hy/hymenf.../06/14/a43.png
http://pic.phyrefile.com/h/hy/hymenf.../06/14/a44.png

http://pic.phyrefile.com/h/hy/hymenf.../06/14/a45.png
http://pic.phyrefile.com/h/hy/hymenf.../06/14/a46.png

http://pic.phyrefile.com/h/hy/hymenf.../06/14/a47.png
http://pic.phyrefile.com/h/hy/hymenf.../06/14/a48.png

see for yourself
post #72 of 157
We need a new video master (sans DNR) with the U.S. 7.1 lossless audio.
post #73 of 157
Very nice. Grain structure is clearly better on nordic release and i don´t see how there can be a pitch issue with hd audio since there is no pal/ntsc problems and lossless 5.1 is just fine
post #74 of 157
Quote:
Originally Posted by wesslan1 View Post

Very nice. Grain structure is clearly better on nordic release and i don´t see how there can be a pitch issue with hd audio since there is no pal/ntsc problems and lossless 5.1 is just fine

You need to go away and do some research, then.
post #75 of 157
Standalone special editions of Optimum's Del Toro collection (Cronos, Pan's Labyrinth, The Devil's Backbone) will be released on 28th February 2011. So this should be the version to own.
post #76 of 157
Quote:
Originally Posted by rezpekt View Post

Standalone special editions of Optimum's Del Toro collection (Cronos, Pan's Labyrinth, The Devil's Backbone) will be released on 28th February 2011. So this should be the version to own.

Is it region-free? What's the deal?
post #77 of 157
new uk disc

Code:
                                                                                                                Total   Video                                             
Title                                                           Codec   Length  Movie Size      Disc Size       Bitrate Bitrate Main Audio Track                          Secondary Audio Track
-----                                                           ------  ------- --------------  --------------  ------- ------- ------------------                        ---------------------
00001.MPLS                                                      VC-1    1:58:51 31,725,262,848  39,924,737,010  35.59   29.47   DTS-HD Master 5.1 1812Kbps (48kHz/16-bit) LPCM 2.0 2304Kbps (48kHz/24-bit)
Code:
DISC INFO:

Disc Title:     PANS LABYRINTH
Disc Size:      39,924,737,010 bytes
Protection:     AACS
BD-Java:        Yes
BDInfo:         0.5.6

PLAYLIST REPORT:

Name:                   00001.MPLS
Length:                 1:58:51 (h:m:s)
Size:                   31,725,262,848 bytes
Total Bitrate:          35.59 Mbps

VIDEO:

Codec                   Bitrate             Description     
-----                   -------             -----------     
VC-1 Video              29473 kbps          1080p / 23.976 fps / 16:9 / Advanced Profile 3

AUDIO:

Codec                           Language        Bitrate         Description     
-----                           --------        -------         -----------     
DTS-HD Master Audio             Spanish         1812 kbps       5.1 / 48 kHz / 1812 kbps / 16-bit (DTS Core: 5.1 / 48 kHz / 768 kbps / 16-bit)
LPCM Audio                      Spanish         2304 kbps       2.0 / 48 kHz / 2304 kbps / 24-bit
Dolby Digital Audio             English         224 kbps        2.0 / 48 kHz / 224 kbps

SUBTITLES:

Codec                           Language        Bitrate         Description     
-----                           --------        -------         -----------     
Presentation Graphics           English         22.688 kbps                     

FILES:

Name            Time In         Length          Size            Total Bitrate   
----            -------         ------          ----            -------------   
00033.M2TS      0:00:00.000     1:58:51.124     31,725,262,848  35,591          

CHAPTERS:

Number          Time In         Length          Avg Video Rate  Max 1-Sec Rate  Max 1-Sec Time  Max 5-Sec Rate  Max 5-Sec Time  Max 10Sec Rate  Max 10Sec Time  Avg Frame Size  Max Frame Size  Max Frame Time  
------          -------         ------          --------------  --------------  --------------  --------------  --------------  --------------  --------------  --------------  --------------  --------------  
1               0:00:00.000     0:11:13.964     28,925 kbps     54,657 kbps     00:07:39.417    39,501 kbps     00:05:41.424    37,197 kbps     00:05:41.049    150,895 bytes   984,673 bytes   00:08:57.161    
2               0:11:13.964     0:06:39.982     28,398 kbps     54,444 kbps     00:13:23.511    38,797 kbps     00:13:23.677    36,363 kbps     00:13:23.385    148,055 bytes   615,588 bytes   00:13:59.880    
3               0:17:53.947     0:06:42.068     28,205 kbps     54,001 kbps     00:18:14.968    39,234 kbps     00:24:14.327    35,801 kbps     00:19:15.154    147,050 bytes   704,912 bytes   00:23:23.902    
4               0:24:36.016     0:07:05.716     33,176 kbps     53,710 kbps     00:24:38.310    38,914 kbps     00:26:17.617    36,988 kbps     00:27:55.215    172,966 bytes   866,296 bytes   00:29:17.046    
5               0:31:41.733     0:06:36.020     32,659 kbps     55,018 kbps     00:33:00.103    39,604 kbps     00:34:10.173    37,211 kbps     00:33:00.103    170,269 bytes   966,007 bytes   00:31:56.080    
6               0:38:17.753     0:05:17.775     31,602 kbps     52,123 kbps     00:41:29.737    38,189 kbps     00:42:36.178    36,730 kbps     00:38:24.385    164,759 bytes   812,609 bytes   00:40:36.058    
7               0:43:35.529     0:06:45.863     30,865 kbps     52,705 kbps     00:46:07.014    39,045 kbps     00:46:06.054    36,972 kbps     00:46:05.679    160,917 bytes   809,671 bytes   00:46:08.974    
8               0:50:21.393     0:05:00.341     28,226 kbps     48,932 kbps     00:53:19.738    36,029 kbps     00:53:22.157    33,761 kbps     00:53:17.152    147,155 bytes   666,491 bytes   00:53:04.431    
9               0:55:21.735     0:06:58.418     30,721 kbps     57,925 kbps     00:55:41.296    38,528 kbps     00:55:41.296    36,572 kbps     01:00:53.566    160,164 bytes   932,675 bytes   00:55:42.172    
10              1:02:20.153     0:09:27.650     32,401 kbps     51,080 kbps     01:04:08.386    38,158 kbps     01:06:36.992    36,894 kbps     01:11:16.772    168,922 bytes   885,113 bytes   01:02:20.194    
11              1:11:47.803     0:11:42.284     29,553 kbps     55,873 kbps     01:18:45.220    39,100 kbps     01:18:03.220    36,904 kbps     01:18:03.220    154,074 bytes   799,831 bytes   01:18:03.261    
12              1:23:30.088     0:07:42.170     29,975 kbps     51,341 kbps     01:26:41.988    39,082 kbps     01:24:24.059    36,910 kbps     01:26:41.988    156,276 bytes   757,225 bytes   01:24:55.381    
13              1:31:12.258     0:10:21.537     31,659 kbps     53,309 kbps     01:41:32.336    39,079 kbps     01:33:35.901    37,108 kbps     01:34:06.682    165,055 bytes   1,023,267 bytes 01:37:26.340    
14              1:41:33.796     0:10:30.212     34,215 kbps     52,955 kbps     01:48:55.362    38,611 kbps     01:42:24.096    36,959 kbps     01:43:01.592    178,383 bytes   820,700 bytes   01:50:25.201    
15              1:52:04.008     0:06:47.115     6,836 kbps      18,495 kbps     01:58:18.049    16,354 kbps     01:58:15.004    15,397 kbps     01:58:11.334    35,737 bytes    359,370 bytes   01:58:18.091    

STREAM DIAGNOSTICS:

File            PID             Type            Codec           Language                Seconds                 Bitrate                 Bytes           Packets         
----            ---             ----            -----           --------                --------------          --------------          -------------   -----           
00033.M2TS      4113 (0x1011)   0xEA            VC-1                                    7130.999                29,473                  26,271,879,242  142,885,064     
00033.M2TS      4352 (0x1100)   0x80            LPCM            spa (Spanish)           7130.999                2,311                   2,059,757,700   11,411,400      
00033.M2TS      4353 (0x1101)   0x86            DTS-HD MA       spa (Spanish)           7130.999                1,813                   1,615,639,192   9,469,859       
00033.M2TS      4354 (0x1102)   0x81            AC3             eng (English)           7130.999                224                     199,671,808     1,114,240       
00033.M2TS      4608 (0x1200)   0x90            PGS             eng (English)           7130.999                23                      20,223,813      116,201
post #78 of 157
Identical VC-1 stream to the original UK release, but with added lossless audio. Nice.
post #79 of 157
Youngryu...is it region free?

Any extras?
post #80 of 157
Where can i find the UK vs the US caps? Didn't xylon do them?

@youngryu.....Is that disc out now?
post #81 of 157
Could be part of the Guillermo Del Toro set.
Which I just ordered
post #82 of 157
Thread Starter 
A stereo Spanish track at 24-bit that's larger than the 16-bit DTS-HD main track...

Quote:
Originally Posted by saprano View Post

Where can i find the UK vs the US caps? Didn't xylon do them?

The second post in this thread links to the EE/DNR list which has the caps. They're also in the big multi-film HD vs BD thread.
post #83 of 157
Quote:
Originally Posted by youngryu View Post

new uk disc

Code:
                                                                                                                Total   Video                                             
Title                                                           Codec   Length  Movie Size      Disc Size       Bitrate Bitrate Main Audio Track                          Secondary Audio Track
-----                                                           ------  ------- --------------  --------------  ------- ------- ------------------                        ---------------------
00001.MPLS                                                      VC-1    1:58:51 31,725,262,848  39,924,737,010  35.59   29.47   DTS-HD Master 5.1 1812Kbps (48kHz/16-bit) LPCM 2.0 2304Kbps (48kHz/24-bit)
Code:
DISC INFO:

Disc Title:     PANS LABYRINTH
Disc Size:      39,924,737,010 bytes
Protection:     AACS
BD-Java:        Yes
BDInfo:         0.5.6

PLAYLIST REPORT:

Name:                   00001.MPLS
Length:                 1:58:51 (h:m:s)
Size:                   31,725,262,848 bytes
Total Bitrate:          35.59 Mbps

VIDEO:

Codec                   Bitrate             Description     
-----                   -------             -----------     
VC-1 Video              29473 kbps          1080p / 23.976 fps / 16:9 / Advanced Profile 3

AUDIO:

Codec                           Language        Bitrate         Description     
-----                           --------        -------         -----------     
DTS-HD Master Audio             Spanish         1812 kbps       5.1 / 48 kHz / 1812 kbps / 16-bit (DTS Core: 5.1 / 48 kHz / 768 kbps / 16-bit)
LPCM Audio                      Spanish         2304 kbps       2.0 / 48 kHz / 2304 kbps / 24-bit
Dolby Digital Audio             English         224 kbps        2.0 / 48 kHz / 224 kbps

SUBTITLES:

Codec                           Language        Bitrate         Description     
-----                           --------        -------         -----------     
Presentation Graphics           English         22.688 kbps                     

FILES:

Name            Time In         Length          Size            Total Bitrate   
----            -------         ------          ----            -------------   
00033.M2TS      0:00:00.000     1:58:51.124     31,725,262,848  35,591          

CHAPTERS:

Number          Time In         Length          Avg Video Rate  Max 1-Sec Rate  Max 1-Sec Time  Max 5-Sec Rate  Max 5-Sec Time  Max 10Sec Rate  Max 10Sec Time  Avg Frame Size  Max Frame Size  Max Frame Time  
------          -------         ------          --------------  --------------  --------------  --------------  --------------  --------------  --------------  --------------  --------------  --------------  
1               0:00:00.000     0:11:13.964     28,925 kbps     54,657 kbps     00:07:39.417    39,501 kbps     00:05:41.424    37,197 kbps     00:05:41.049    150,895 bytes   984,673 bytes   00:08:57.161    
2               0:11:13.964     0:06:39.982     28,398 kbps     54,444 kbps     00:13:23.511    38,797 kbps     00:13:23.677    36,363 kbps     00:13:23.385    148,055 bytes   615,588 bytes   00:13:59.880    
3               0:17:53.947     0:06:42.068     28,205 kbps     54,001 kbps     00:18:14.968    39,234 kbps     00:24:14.327    35,801 kbps     00:19:15.154    147,050 bytes   704,912 bytes   00:23:23.902    
4               0:24:36.016     0:07:05.716     33,176 kbps     53,710 kbps     00:24:38.310    38,914 kbps     00:26:17.617    36,988 kbps     00:27:55.215    172,966 bytes   866,296 bytes   00:29:17.046    
5               0:31:41.733     0:06:36.020     32,659 kbps     55,018 kbps     00:33:00.103    39,604 kbps     00:34:10.173    37,211 kbps     00:33:00.103    170,269 bytes   966,007 bytes   00:31:56.080    
6               0:38:17.753     0:05:17.775     31,602 kbps     52,123 kbps     00:41:29.737    38,189 kbps     00:42:36.178    36,730 kbps     00:38:24.385    164,759 bytes   812,609 bytes   00:40:36.058    
7               0:43:35.529     0:06:45.863     30,865 kbps     52,705 kbps     00:46:07.014    39,045 kbps     00:46:06.054    36,972 kbps     00:46:05.679    160,917 bytes   809,671 bytes   00:46:08.974    
8               0:50:21.393     0:05:00.341     28,226 kbps     48,932 kbps     00:53:19.738    36,029 kbps     00:53:22.157    33,761 kbps     00:53:17.152    147,155 bytes   666,491 bytes   00:53:04.431    
9               0:55:21.735     0:06:58.418     30,721 kbps     57,925 kbps     00:55:41.296    38,528 kbps     00:55:41.296    36,572 kbps     01:00:53.566    160,164 bytes   932,675 bytes   00:55:42.172    
10              1:02:20.153     0:09:27.650     32,401 kbps     51,080 kbps     01:04:08.386    38,158 kbps     01:06:36.992    36,894 kbps     01:11:16.772    168,922 bytes   885,113 bytes   01:02:20.194    
11              1:11:47.803     0:11:42.284     29,553 kbps     55,873 kbps     01:18:45.220    39,100 kbps     01:18:03.220    36,904 kbps     01:18:03.220    154,074 bytes   799,831 bytes   01:18:03.261    
12              1:23:30.088     0:07:42.170     29,975 kbps     51,341 kbps     01:26:41.988    39,082 kbps     01:24:24.059    36,910 kbps     01:26:41.988    156,276 bytes   757,225 bytes   01:24:55.381    
13              1:31:12.258     0:10:21.537     31,659 kbps     53,309 kbps     01:41:32.336    39,079 kbps     01:33:35.901    37,108 kbps     01:34:06.682    165,055 bytes   1,023,267 bytes 01:37:26.340    
14              1:41:33.796     0:10:30.212     34,215 kbps     52,955 kbps     01:48:55.362    38,611 kbps     01:42:24.096    36,959 kbps     01:43:01.592    178,383 bytes   820,700 bytes   01:50:25.201    
15              1:52:04.008     0:06:47.115     6,836 kbps      18,495 kbps     01:58:18.049    16,354 kbps     01:58:15.004    15,397 kbps     01:58:11.334    35,737 bytes    359,370 bytes   01:58:18.091    

STREAM DIAGNOSTICS:

File            PID             Type            Codec           Language                Seconds                 Bitrate                 Bytes           Packets         
----            ---             ----            -----           --------                --------------          --------------          -------------   -----           
00033.M2TS      4113 (0x1011)   0xEA            VC-1                                    7130.999                29,473                  26,271,879,242  142,885,064     
00033.M2TS      4352 (0x1100)   0x80            LPCM            spa (Spanish)           7130.999                2,311                   2,059,757,700   11,411,400      
00033.M2TS      4353 (0x1101)   0x86            DTS-HD MA       spa (Spanish)           7130.999                1,813                   1,615,639,192   9,469,859       
00033.M2TS      4354 (0x1102)   0x81            AC3             eng (English)           7130.999                224                     199,671,808     1,114,240       
00033.M2TS      4608 (0x1200)   0x90            PGS             eng (English)           7130.999                23                      20,223,813      116,201

Any source links for this release? Any news on when AmazonUK/US will stock it?
post #84 of 157
Quote:
Originally Posted by msgohan View Post

A stereo Spanish track at 24-bit that's larger than the 16-bit DTS-HD main track...

Thats what happens when the stereo track is uncompressed.
post #85 of 157
Quote:
Originally Posted by DigitalfreakNYC View Post

Youngryu...is it region free?

Any extras?

yes, region free
yes, exact same as previous uk disc, but with different menus

Quote:
Originally Posted by saprano View Post

Where can i find the UK vs the US caps? Didn't xylon do them?

@youngryu.....Is that disc out now?

yes
Code:
http://www.amazon.co.uk/Guillermo-Del-Toro-Collection-Blu-ray/dp/B003PHJLX2
post #86 of 157
Quote:
Originally Posted by youngryu View Post

yes, region free
yes, exact same as previous uk disc, but with different menus



yes
Code:
http://www.amazon.co.uk/Guillermo-Del-Toro-Collection-Blu-ray/dp/B003PHJLX2

That makes my day. My next UK order shall include it.
post #87 of 157
Are the extras in PAL again?

Best Regards
KvE
post #88 of 157
All of the extras are HD according to the reviews\\specs I read.
Actually I'm jazzed about this set.
I rented a laser disc of Cronos years ago and remember liking it.
I've never seen or heard of The Devil's Backbone.
Pan's is a beautiful, unique film.
It'll be interesting to compare this to the one I already have.
I thought the New Line was fine. Not perfect(what is) but still beautiful.
$25 per film including shipping is fine with me as the rewatch and sharing factor are about as high as it gets.
post #89 of 157
Quote:
Originally Posted by KMFDMvsEnya View Post

Are the extras in PAL again?

Best Regards
KvE

yes, as stated before same as old uk disc. ALL extras are in PAL.

btw

post #90 of 157
Just to be clear, the extras on the Guillermo Del Toro BD set are PAL or the extra on the Criterion release.
New Posts  All Forums:Forum Nav:
  Return Home
  Back to Forum: Blu-ray Software
AVS › AVS Forum › Blu-ray & HD DVD › Blu-ray Software › Best Pan's Labyrinth release?