AVS Forum banner
1 - 1 of 1 Posts

·
Registered
Joined
·
495 Posts
Discussion Starter · #1 ·
This is captured from a VHS tape onto my computer. File plays for a bit, freezes for a bit, then resumes, freezes, resumes, and so on. I couldn't get an answer on the NMT forum, so I thought I'd try here. Any help appreciated.


From MediaInfo:


General

Complete name : Y:\\PF\\File 1.mpeg

Format : MPEG-PS

File size : 3.08 GiB

Duration : 17mn 15s

Overall bit rate : 25.6 Mbps


Video

ID : 224 (0xE0)

Format : MPEG Video

Format version : Version 2

Format profile : [email protected]

Format settings, Matrix : Default

Duration : 17mn 15s

Bit rate mode : Variable

Bit rate : 24.2 Mbps

Nominal bit rate : 9 000 Kbps

Width : 640 pixels

Height : 480 pixels

Display aspect ratio : 4:3

Frame rate : 29.970 fps

Colorimetry : 4:2:0

Scan type : Interlaced

Scan order : Bottom Field First

Bits/(Pixel*Frame) : 2.625

Stream size : 2.91 GiB (95%)


Audio

ID : 192 (0xC0)

Format : MPEG Audio

Format version : Version 1

Format profile : Layer 2

Duration : 17mn 15s

Bit rate mode : Constant

Bit rate : 384 Kbps

Channel(s) : 2 channels

Sampling rate : 48.0 KHz

Resolution : 16 bits

Video delay : 414ms

Stream size : 47.4 MiB (2%)
 
1 - 1 of 1 Posts
Top