AVS Forum banner
1 - 3 of 3 Posts

·
Registered
Joined
·
1,231 Posts
Discussion Starter · #1 ·
Not sure this is the right subforum, if not please move it elsewhere. As I just realized, a friend's LG TV does seek in MP4s played from a MyBookLive with Twonky over DLNA. One file I've downloaded from public television (they have repositories on the net) works just fine. But the one I created from an MKV ripped from BD does not. Even if I switch to the more capable PS3 media server on my PC, there's still no seeking in that file possible. Any ideas what might do the trick? Thx.

Seeking impossible
Code:
General
Complete name                            : z:\Test\4x05.mp4
Format                                   : MPEG-4
Format profile                           : JVT
Codec ID                                 : avc1
File size                                : 1.42 GiB
Duration                                 : 46mn 50s
Overall bit rate mode                    : Variable
Overall bit rate                         : 4 349 Kbps
Encoded date                             : UTC 2015-01-18 13:40:33
Tagged date                              : UTC 2015-01-18 13:40:33
Writing application                      : Hybrid 2014.12.23.1

Video
ID                                       : 1
Format                                   : AVC
Format/Info                              : Advanced Video Codec
Format profile                           : [email protected]
Format settings, CABAC                   : Yes
Format settings, ReFrames                : 5 frames
Codec ID                                 : avc1
Codec ID/Info                            : Advanced Video Coding
Duration                                 : 46mn 50s
Bit rate                                 : 4 218 Kbps
Maximum bit rate                         : 15.8 Mbps
Width                                    : 1 280 pixels
Height                                   : 720 pixels
Display aspect ratio                     : 16:9
Frame rate mode                          : Constant
Frame rate                               : 25.000 fps
Color space                              : YUV
Chroma subsampling                       : 4:2:0
Bit depth                                : 8 bits
Scan type                                : Progressive
Bits/(Pixel*Frame)                       : 0.183
Stream size                              : 1.38 GiB (97%)
Writing library                          : x264 core 138 r2358 9e941d1
Encoding settings                        : cabac=1 / ref=5 / deblock=1:-2:-2 / analyse=0x3:0x113 / me=umh / subme=8 / psy=1 / psy_rd=1.00:0.00 / mixed_ref=1 / me_range=16 / chroma_me=1 / trellis=1 / 8x8dct=1 / cqm=0 / deadzone=21,11 / fast_pskip=1 / chroma_qp_offset=-2 / threads=6 / lookahead_threads=1 / sliced_threads=0 / nr=0 / decimate=1 / interlaced=0 / bluray_compat=0 / constrained_intra=0 / bframes=3 / b_pyramid=2 / b_adapt=2 / b_bias=0 / direct=3 / weightb=1 / open_gop=0 / weightp=2 / keyint=250 / keyint_min=25 / scenecut=40 / intra_refresh=0 / rc_lookahead=50 / rc=2pass / mbtree=1 / bitrate=4218 / ratetol=1.0 / qcomp=0.60 / qpmin=0 / qpmax=69 / qpstep=4 / cplxblur=20.0 / qblur=0.5 / ip_ratio=1.40 / aq=1:1.00
Encoded date                             : UTC 2015-01-18 13:40:33
Tagged date                              : UTC 2015-01-18 13:40:47

Audio
ID                                       : 2
Format                                   : AAC
Format/Info                              : Advanced Audio Codec
Format profile                           : LC
Codec ID                                 : 40
Duration                                 : 46mn 50s
Bit rate mode                            : Variable
Bit rate                                 : 128 Kbps
Maximum bit rate                         : 267 Kbps
Channel(s)                               : 2 channels
Channel positions                        : Front: L R
Sampling rate                            : 48.0 KHz
Compression mode                         : Lossy
Stream size                              : 42.9 MiB (3%)
Encoded date                             : UTC 2015-01-18 13:39:10
Tagged date                              : UTC 2015-01-18 13:40:47

Menu
00:00:00.000                             : 00:00:00.000
00:07:55.279                             : 00:07:55.280
00:15:58.120                             : 00:15:58.120
00:23:51.640                             : 00:23:51.640
00:31:30.480                             : 00:31:30.480
00:39:16.599                             : 00:39:16.600
Seeking possible
Code:
General
Complete name                            : z:\Test\publictv.mp4
Format                                   : MPEG-4
Format profile                           : Base Media / Version 2
Codec ID                                 : mp42
File size                                : 1.64 GiB
Duration                                 : 1h 26mn
Overall bit rate mode                    : Variable
Overall bit rate                         : 2 693 Kbps
Encoded date                             : UTC 2014-12-29 22:26:23
Tagged date                              : UTC 2014-12-29 22:26:23

Video
ID                                       : 1
Format                                   : AVC
Format/Info                              : Advanced Video Codec
Format profile                           : [email protected]
Format settings, CABAC                   : Yes
Format settings, ReFrames                : 3 frames
Codec ID                                 : avc1
Codec ID/Info                            : Advanced Video Coding
Duration                                 : 1h 26mn
Bit rate                                 : 2 563 Kbps
Width                                    : 1 280 pixels
Height                                   : 720 pixels
Display aspect ratio                     : 16:9
Frame rate mode                          : Constant
Frame rate                               : 25.000 fps
Standard                                 : PAL
Color space                              : YUV
Chroma subsampling                       : 4:2:0
Bit depth                                : 8 bits
Scan type                                : Progressive
Bits/(Pixel*Frame)                       : 0.111
Stream size                              : 1.56 GiB (95%)
Encoded date                             : UTC 2014-12-29 22:26:23
Tagged date                              : UTC 2014-12-29 22:26:23
Color range                              : Limited

Audio
ID                                       : 2
Format                                   : AAC
Format/Info                              : Advanced Audio Codec
Format profile                           : LC
Codec ID                                 : 40
Duration                                 : 1h 26mn
Bit rate mode                            : Variable
Bit rate                                 : 125 Kbps
Maximum bit rate                         : 232 Kbps
Channel(s)                               : 2 channels
Channel positions                        : Front: L R
Sampling rate                            : 48.0 KHz
Compression mode                         : Lossy
Stream size                              : 78.0 MiB (5%)
Encoded date                             : UTC 2014-12-29 22:26:23
Tagged date                              : UTC 2014-12-29 22:26:23
 

·
Registered
Joined
·
12 Posts
1 - 3 of 3 Posts
Top